  0
SECTION
  2
HEADER
  9
$ACADVER
  1
AC1015
  9
$ACADMAINTVER
 70
    20
  9
$DWGCODEPAGE
  3
ANSI_1252
  9
$INSBASE
 10
0.0
 20
0.0
 30
0.0
  9
$EXTMIN
 10
779.9562478496016
 20
685.3258760086368
 30
0.0
  9
$EXTMAX
 10
832.2246326396404
 20
721.4064525023672
 30
0.0
  9
$LIMMIN
 10
0.0
 20
0.0
  9
$LIMMAX
 10
12.0
 20
9.0
  9
$ORTHOMODE
 70
     1
  9
$REGENMODE
 70
     1
  9
$FILLMODE
 70
     1
  9
$QTEXTMODE
 70
     0
  9
$MIRRTEXT
 70
     0
  9
$LTSCALE
 40
1.0
  9
$ATTMODE
 70
     1
  9
$TEXTSIZE
 40
0.2
  9
$TRACEWID
 40
0.05
  9
$TEXTSTYLE
  7
Standard
  9
$CLAYER
  8
0
  9
$CELTYPE
  6
ByLayer
  9
$CECOLOR
 62
   256
  9
$CELTSCALE
 40
1.0
  9
$DISPSILH
 70
     0
  9
$DIMSCALE
 40
1.0
  9
$DIMASZ
 40
0.18
  9
$DIMEXO
 40
0.0625
  9
$DIMDLI
 40
0.38
  9
$DIMRND
 40
0.0
  9
$DIMDLE
 40
0.0
  9
$DIMEXE
 40
0.18
  9
$DIMTP
 40
0.0
  9
$DIMTM
 40
0.0
  9
$DIMTXT
 40
0.18
  9
$DIMCEN
 40
0.09
  9
$DIMTSZ
 40
0.0
  9
$DIMTOL
 70
     0
  9
$DIMLIM
 70
     0
  9
$DIMTIH
 70
     1
  9
$DIMTOH
 70
     1
  9
$DIMSE1
 70
     0
  9
$DIMSE2
 70
     0
  9
$DIMTAD
 70
     0
  9
$DIMZIN
 70
     0
  9
$DIMBLK
  1

  9
$DIMASO
 70
     1
  9
$DIMSHO
 70
     1
  9
$DIMPOST
  1

  9
$DIMAPOST
  1
mm
  9
$DIMALT
 70
     1
  9
$DIMALTD
 70
     2
  9
$DIMALTF
 40
25.4
  9
$DIMLFAC
 40
1.0
  9
$DIMTOFL
 70
     0
  9
$DIMTVP
 40
0.0
  9
$DIMTIX
 70
     0
  9
$DIMSOXD
 70
     0
  9
$DIMSAH
 70
     0
  9
$DIMBLK1
  1

  9
$DIMBLK2
  1

  9
$DIMSTYLE
  2
Standard
  9
$DIMCLRD
 70
     0
  9
$DIMCLRE
 70
     0
  9
$DIMCLRT
 70
     0
  9
$DIMTFAC
 40
1.0
  9
$DIMGAP
 40
0.09
  9
$DIMJUST
 70
     0
  9
$DIMSD1
 70
     0
  9
$DIMSD2
 70
     0
  9
$DIMTOLJ
 70
     1
  9
$DIMTZIN
 70
     0
  9
$DIMALTZ
 70
     0
  9
$DIMALTTZ
 70
     0
  9
$DIMUPT
 70
     0
  9
$DIMDEC
 70
     4
  9
$DIMTDEC
 70
     4
  9
$DIMALTU
 70
     2
  9
$DIMALTTD
 70
     2
  9
$DIMTXSTY
  7
Standard
  9
$DIMAUNIT
 70
     0
  9
$DIMADEC
 70
     0
  9
$DIMALTRND
 40
0.0
  9
$DIMAZIN
 70
     0
  9
$DIMDSEP
 70
    46
  9
$DIMATFIT
 70
     3
  9
$DIMFRAC
 70
     0
  9
$DIMLDRBLK
  1

  9
$DIMLUNIT
 70
     5
  9
$DIMLWD
 70
    -2
  9
$DIMLWE
 70
    -2
  9
$DIMTMOVE
 70
     0
  9
$LUNITS
 70
     2
  9
$LUPREC
 70
     4
  9
$SKETCHINC
 40
0.1
  9
$FILLETRAD
 40
0.0
  9
$AUNITS
 70
     0
  9
$AUPREC
 70
     0
  9
$MENU
  1
.
  9
$ELEVATION
 40
0.0
  9
$PELEVATION
 40
0.0
  9
$THICKNESS
 40
0.0
  9
$LIMCHECK
 70
     0
  9
$CHAMFERA
 40
0.0
  9
$CHAMFERB
 40
0.0
  9
$CHAMFERC
 40
0.0
  9
$CHAMFERD
 40
0.0
  9
$SKPOLY
 70
     0
  9
$TDCREATE
 40
2454741.571576030
  9
$TDUCREATE
 40
2454741.738242697
  9
$TDUPDATE
 40
2456134.628409931
  9
$TDUUPDATE
 40
2456134.795076597
  9
$TDINDWG
 40
0.0232745023
  9
$TDUSRTIMER
 40
0.0232741551
  9
$USRTIMER
 70
     1
  9
$ANGBASE
 50
0.0
  9
$ANGDIR
 70
     0
  9
$PDMODE
 70
     0
  9
$PDSIZE
 40
0.0
  9
$PLINEWID
 40
0.0
  9
$SPLFRAME
 70
     0
  9
$SPLINETYPE
 70
     6
  9
$SPLINESEGS
 70
     8
  9
$HANDSEED
  5
13F1
  9
$SURFTAB1
 70
     6
  9
$SURFTAB2
 70
     6
  9
$SURFTYPE
 70
     6
  9
$SURFU
 70
     6
  9
$SURFV
 70
     6
  9
$UCSBASE
  2

  9
$UCSNAME
  2

  9
$UCSORG
 10
0.0
 20
0.0
 30
0.0
  9
$UCSXDIR
 10
1.0
 20
0.0
 30
0.0
  9
$UCSYDIR
 10
0.0
 20
1.0
 30
0.0
  9
$UCSORTHOREF
  2

  9
$UCSORTHOVIEW
 70
     0
  9
$UCSORGTOP
 10
0.0
 20
0.0
 30
0.0
  9
$UCSORGBOTTOM
 10
0.0
 20
0.0
 30
0.0
  9
$UCSORGLEFT
 10
0.0
 20
0.0
 30
0.0
  9
$UCSORGRIGHT
 10
0.0
 20
0.0
 30
0.0
  9
$UCSORGFRONT
 10
0.0
 20
0.0
 30
0.0
  9
$UCSORGBACK
 10
0.0
 20
0.0
 30
0.0
  9
$PUCSBASE
  2

  9
$PUCSNAME
  2

  9
$PUCSORG
 10
0.0
 20
0.0
 30
0.0
  9
$PUCSXDIR
 10
1.0
 20
0.0
 30
0.0
  9
$PUCSYDIR
 10
0.0
 20
1.0
 30
0.0
  9
$PUCSORTHOREF
  2

  9
$PUCSORTHOVIEW
 70
     0
  9
$PUCSORGTOP
 10
0.0
 20
0.0
 30
0.0
  9
$PUCSORGBOTTOM
 10
0.0
 20
0.0
 30
0.0
  9
$PUCSORGLEFT
 10
0.0
 20
0.0
 30
0.0
  9
$PUCSORGRIGHT
 10
0.0
 20
0.0
 30
0.0
  9
$PUCSORGFRONT
 10
0.0
 20
0.0
 30
0.0
  9
$PUCSORGBACK
 10
0.0
 20
0.0
 30
0.0
  9
$USERI1
 70
     0
  9
$USERI2
 70
     0
  9
$USERI3
 70
     0
  9
$USERI4
 70
     0
  9
$USERI5
 70
     0
  9
$USERR1
 40
0.0
  9
$USERR2
 40
0.0
  9
$USERR3
 40
0.0
  9
$USERR4
 40
0.0
  9
$USERR5
 40
0.0
  9
$WORLDVIEW
 70
     1
  9
$SHADEDGE
 70
     3
  9
$SHADEDIF
 70
    70
  9
$TILEMODE
 70
     1
  9
$MAXACTVP
 70
    64
  9
$PINSBASE
 10
0.0
 20
0.0
 30
0.0
  9
$PLIMCHECK
 70
     0
  9
$PEXTMIN
 10
1.000000000000000E+20
 20
1.000000000000000E+20
 30
1.000000000000000E+20
  9
$PEXTMAX
 10
-1.000000000000000E+20
 20
-1.000000000000000E+20
 30
-1.000000000000000E+20
  9
$PLIMMIN
 10
-20.0
 20
-7.5
  9
$PLIMMAX
 10
277.0
 20
202.5
  9
$UNITMODE
 70
     0
  9
$VISRETAIN
 70
     1
  9
$PLINEGEN
 70
     0
  9
$PSLTSCALE
 70
     1
  9
$TREEDEPTH
 70
  3020
  9
$CMLSTYLE
  2
Standard
  9
$CMLJUST
 70
     0
  9
$CMLSCALE
 40
1.0
  9
$PROXYGRAPHICS
 70
     1
  9
$MEASUREMENT
 70
     0
  9
$CELWEIGHT
370
    -1
  9
$ENDCAPS
280
     0
  9
$JOINSTYLE
280
     0
  9
$LWDISPLAY
290
     0
  9
$INSUNITS
 70
     1
  9
$HYPERLINKBASE
  1

  9
$STYLESHEET
  1

  9
$XEDIT
290
     1
  9
$CEPSNTYPE
380
     0
  9
$PSTYLEMODE
290
     1
  9
$FINGERPRINTGUID
  2
{CE3D1872-8BE4-4280-B1B1-C751DCEBB459}
  9
$VERSIONGUID
  2
{ACB10355-E4D8-4073-8A6D-73E97ECDAAE8}
  9
$EXTNAMES
290
     1
  9
$PSVPSCALE
 40
0.0
  9
$OLESTARTUP
290
     0
  0
ENDSEC
  0
SECTION
  2
CLASSES
  0
CLASS
  1
ACDBDICTIONARYWDFLT
  2
AcDbDictionaryWithDefault
  3
ObjectDBX Classes
 90
        0
280
     0
281
     0
  0
CLASS
  1
ACDBPLACEHOLDER
  2
AcDbPlaceHolder
  3
ObjectDBX Classes
 90
        0
280
     0
281
     0
  0
CLASS
  1
LAYOUT
  2
AcDbLayout
  3
ObjectDBX Classes
 90
        0
280
     0
281
     0
  0
CLASS
  1
DICTIONARYVAR
  2
AcDbDictionaryVar
  3
ObjectDBX Classes
 90
        0
280
     0
281
     0
  0
CLASS
  1
TABLESTYLE
  2
AcDbTableStyle
  3
ObjectDBX Classes
 90
     4095
280
     0
281
     0
  0
CLASS
  1
SORTENTSTABLE
  2
AcDbSortentsTable
  3
ObjectDBX Classes
 90
    32768
280
     0
281
     0
  0
CLASS
  1
DIMASSOC
  2
AcDbDimAssoc
  3
"AcDbDimAssoc|Product Desc:     AcDim ARX App For Dimension|Company:          Autodesk, Inc.|WEB Address:      www.autodesk.com"
 90
        0
280
     0
281
     0
  0
CLASS
  1
MATERIAL
  2
AcDbMaterial
  3
ObjectDBX Classes
 90
     1153
280
     0
281
     0
  0
CLASS
  1
VISUALSTYLE
  2
AcDbVisualStyle
  3
ObjectDBX Classes
 90
     4095
280
     0
281
     0
  0
CLASS
  1
SCALE
  2
AcDbScale
  3
ObjectDBX Classes
 90
     1153
280
     0
281
     0
  0
CLASS
  1
MLEADERSTYLE
  2
AcDbMLeaderStyle
  3
ACDB_MLEADERSTYLE_CLASS
 90
     4095
280
     0
281
     0
  0
CLASS
  1
CELLSTYLEMAP
  2
AcDbCellStyleMap
  3
ObjectDBX Classes
 90
     1152
280
     0
281
     0
  0
ENDSEC
  0
SECTION
  2
TABLES
  0
TABLE
  2
VPORT
  5
8
330
0
100
AcDbSymbolTable
 70
     1
  0
VPORT
  5
1357
330
8
100
AcDbSymbolTableRecord
100
AcDbViewportTableRecord
  2
*Active
 70
     0
 10
0.0
 20
0.0
 11
1.0
 21
1.0
 12
852.3740085449471
 22
717.7958629294409
 13
0.0
 23
0.0
 14
0.5
 24
0.5
 15
0.5
 25
0.5
 16
0.0
 26
0.0
 36
1.0
 17
0.0
 27
0.0
 37
0.0
 40
86.55699037057541
 41
2.408320493066255
 42
50.0
 43
0.0
 44
0.0
 50
0.0
 51
0.0
 71
     0
 72
 20000
 73
     1
 74
     3
 75
     0
 76
     0
 77
     0
 78
     0
281
     0
 65
     1
110
0.0
120
0.0
130
0.0
111
1.0
121
0.0
131
0.0
112
0.0
122
1.0
132
0.0
 79
     0
146
0.0
1001
ACAD_NAV_VCDISPLAY
1070
     3
  0
ENDTAB
  0
TABLE
  2
LTYPE
  5
5
330
0
100
AcDbSymbolTable
 70
     3
  0
LTYPE
  5
14
330
5
100
AcDbSymbolTableRecord
100
AcDbLinetypeTableRecord
  2
ByBlock
 70
     0
  3

 72
    65
 73
     0
 40
0.0
  0
LTYPE
  5
15
330
5
100
AcDbSymbolTableRecord
100
AcDbLinetypeTableRecord
  2
ByLayer
 70
     0
  3

 72
    65
 73
     0
 40
0.0
  0
LTYPE
  5
16
330
5
100
AcDbSymbolTableRecord
100
AcDbLinetypeTableRecord
  2
Continuous
 70
     0
  3
Solid line
 72
    65
 73
     0
 40
0.0
  0
LTYPE
  5
7B1
330
5
100
AcDbSymbolTableRecord
100
AcDbLinetypeTableRecord
  2
DASHED
 70
     0
  3
-- -- -- -- -- -- -- -- -- --
 72
    65
 73
     2
 40
3.0
 49
2.0
 74
     0
 49
-1.0
 74
     0
  0
LTYPE
  5
7B2
330
5
100
AcDbSymbolTableRecord
100
AcDbLinetypeTableRecord
  2
CENTER
 70
     0
  3
--- - --- - --- - --- - --- -
 72
    65
 73
     4
 40
6.0
 49
3.0
 74
     0
 49
-1.0
 74
     0
 49
1.0
 74
     0
 49
-1.0
 74
     0
  0
ENDTAB
  0
TABLE
  2
LAYER
  5
2
102
{ACAD_XDICTIONARY
360
1D0
102
}
330
0
100
AcDbSymbolTable
 70
     3
  0
LAYER
  5
10
330
2
100
AcDbSymbolTableRecord
100
AcDbLayerTableRecord
  2
0
 70
     0
 62
     7
  6
Continuous
370
    -3
390
F
  0
LAYER
  5
200
330
2
100
AcDbSymbolTableRecord
100
AcDbLayerTableRecord
  2
Defpoints
 70
     0
 62
     7
  6
Continuous
290
     0
370
    -3
390
F
  0
LAYER
  5
7B4
330
2
100
AcDbSymbolTableRecord
100
AcDbLayerTableRecord
  2
PIC06
 70
     0
 62
     7
  6
Continuous
370
    -3
390
F
  0
ENDTAB
  0
TABLE
  2
STYLE
  5
3
330
0
100
AcDbSymbolTable
 70
     1
  0
STYLE
  5
11
330
3
100
AcDbSymbolTableRecord
100
AcDbTextStyleTableRecord
  2
Standard
 70
     0
 40
0.0
 41
1.0
 50
0.0
 71
     0
 42
0.2
  3
txt
  4

  0
ENDTAB
  0
TABLE
  2
VIEW
  5
6
330
0
100
AcDbSymbolTable
 70
     0
  0
ENDTAB
  0
TABLE
  2
UCS
  5
7
330
0
100
AcDbSymbolTable
 70
     0
  0
ENDTAB
  0
TABLE
  2
APPID
  5
9
330
0
100
AcDbSymbolTable
 70
    13
  0
APPID
  5
12
330
9
100
AcDbSymbolTableRecord
100
AcDbRegAppTableRecord
  2
ACAD
 70
     0
  0
APPID
  5
1CA
330
9
100
AcDbSymbolTableRecord
100
AcDbRegAppTableRecord
  2
ACAD_PSEXT
 70
     0
  0
APPID
  5
1CB
330
9
100
AcDbSymbolTableRecord
100
AcDbRegAppTableRecord
  2
ACAD_DSTYLE_DIMEXT_LENGTH
 70
     0
  0
APPID
  5
1CC
330
9
100
AcDbSymbolTableRecord
100
AcDbRegAppTableRecord
  2
ACAD_DSTYLE_DIMEXT_ENABLED
 70
     0
  0
APPID
  5
1CD
330
9
100
AcDbSymbolTableRecord
100
AcDbRegAppTableRecord
  2
ACAD_DSTYLE_DIMJOGGED_JOGANGLE_SYMBOL
 70
     0
  0
APPID
  5
1CE
330
9
100
AcDbSymbolTableRecord
100
AcDbRegAppTableRecord
  2
ACAD_DSTYLE_DIMARC_LENGTH_SYMBOL
 70
     0
  0
APPID
  5
1CF
330
9
100
AcDbSymbolTableRecord
100
AcDbRegAppTableRecord
  2
DCO15
 70
     0
  0
APPID
  5
2A8
330
9
100
AcDbSymbolTableRecord
100
AcDbRegAppTableRecord
  2
ACAD_DSTYLE_DIMTEXT_FILL
 70
     0
  0
APPID
  5
2AB
330
9
100
AcDbSymbolTableRecord
100
AcDbRegAppTableRecord
  2
ACAD_DSTYLE_DIM_LINETYPE
 70
     0
  0
APPID
  5
2AC
330
9
100
AcDbSymbolTableRecord
100
AcDbRegAppTableRecord
  2
ACAD_DSTYLE_DIM_EXT1_LINETYPE
 70
     0
  0
APPID
  5
2AD
330
9
100
AcDbSymbolTableRecord
100
AcDbRegAppTableRecord
  2
ACAD_DSTYLE_DIM_EXT2_LINETYPE
 70
     0
  0
APPID
  5
13AE
330
9
100
AcDbSymbolTableRecord
100
AcDbRegAppTableRecord
  2
ACAD_NAV_VCDISPLAY
 70
     0
  0
APPID
  5
13F0
330
9
100
AcDbSymbolTableRecord
100
AcDbRegAppTableRecord
  2
ACAD_MLEADERVER
 70
     0
  0
ENDTAB
  0
TABLE
  2
DIMSTYLE
  5
A
330
0
100
AcDbSymbolTable
 70
     1
100
AcDbDimStyleTable
 71
     1
340
27
  0
DIMSTYLE
105
27
102
{ACAD_REACTORS
330
F1F
102
}
330
A
100
AcDbSymbolTableRecord
100
AcDbDimStyleTableRecord
  2
Standard
 70
     0
  4
mm
170
     1
277
     5
340
11
1001
ACAD_DSTYLE_DIMJOGGED_JOGANGLE_SYMBOL
1070
   384
1040
0.7853981633974483
1001
ACAD_DSTYLE_DIMEXT_LENGTH
1070
   378
1040
0.18
  0
ENDTAB
  0
TABLE
  2
BLOCK_RECORD
  5
1
330
0
100
AcDbSymbolTable
 70
     1
  0
BLOCK_RECORD
  5
1F
330
1
100
AcDbSymbolTableRecord
100
AcDbBlockTableRecord
  2
*Model_Space
340
22
  0
BLOCK_RECORD
  5
58
330
1
100
AcDbSymbolTableRecord
100
AcDbBlockTableRecord
  2
*Paper_Space
340
59
  0
BLOCK_RECORD
  5
F20
330
1
100
AcDbSymbolTableRecord
100
AcDbBlockTableRecord
  2
*D0
340
0
  0
ENDTAB
  0
ENDSEC
  0
SECTION
  2
BLOCKS
  0
BLOCK
  5
20
330
1F
100
AcDbEntity
  8
0
100
AcDbBlockBegin
  2
*Model_Space
 70
     0
 10
0.0
 20
0.0
 30
0.0
  3
*Model_Space
  1

  0
ENDBLK
  5
21
330
1F
100
AcDbEntity
  8
0
100
AcDbBlockEnd
  0
BLOCK
  5
5A
330
58
100
AcDbEntity
 67
     1
  8
0
100
AcDbBlockBegin
  2
*Paper_Space
 70
     0
 10
0.0
 20
0.0
 30
0.0
  3
*Paper_Space
  1

  0
ENDBLK
  5
5B
330
58
100
AcDbEntity
 67
     1
  8
0
100
AcDbBlockEnd
  0
BLOCK
  5
F2B
330
F20
100
AcDbEntity
  8
0
100
AcDbBlockBegin
  2
*D0
 70
     1
 10
0.0
 20
0.0
 30
0.0
  3
*D0
  1

  0
LINE
  5
1279
330
F20
100
AcDbEntity
  8
0
 62
     0
370
    -2
100
AcDbLine
 10
832.2246326396404
 20
700.1997008438261
 30
0.0
 11
832.2246326396404
 21
702.1772598441424
 31
0.0
  0
LINE
  5
127A
330
F20
100
AcDbEntity
  8
0
 62
     0
370
    -2
100
AcDbLine
 10
818.2482826396404
 20
700.1997008438261
 30
0.0
 11
818.2482826396404
 21
702.1772598441424
 31
0.0
  0
LINE
  5
127B
330
F20
100
AcDbEntity
  8
0
 62
     0
370
    -2
100
AcDbLine
 10
832.0446326396405
 20
701.9972598441425
 30
0.0
 11
826.2864576396404
 21
701.9972598441425
 31
0.0
  0
LINE
  5
127C
330
F20
100
AcDbEntity
  8
0
 62
     0
370
    -2
100
AcDbLine
 10
818.4282826396403
 20
701.9972598441425
 30
0.0
 11
824.1864576396405
 21
701.9972598441425
 31
0.0
  0
SOLID
  5
127D
330
F20
100
AcDbEntity
  8
0
 62
     0
100
AcDbTrace
 10
832.0446326396405
 20
702.0272598441424
 30
0.0
 11
832.0446326396405
 21
701.9672598441425
 31
0.0
 12
832.2246326396404
 22
701.9972598441425
 32
0.0
 13
832.2246326396404
 23
701.9972598441425
 33
0.0
  0
SOLID
  5
127E
330
F20
100
AcDbEntity
  8
0
 62
     0
100
AcDbTrace
 10
818.4282826396403
 20
702.0272598441424
 30
0.0
 11
818.4282826396403
 21
701.9672598441425
 31
0.0
 12
818.2482826396404
 22
701.9972598441425
 32
0.0
 13
818.2482826396404
 23
701.9972598441425
 33
0.0
  0
MTEXT
  5
127F
330
F20
100
AcDbEntity
  8
0
 62
     0
100
AcDbMText
 10
825.2364576396404
 20
701.9972598441425
 30
0.0
 40
0.18
 41
0.0
 71
     5
 72
     1
  1
\A1;14 [355.00mm]
 73
     1
 44
1.0
1001
ACAD
1000
MTEXTBEGIN
1070
    73
1070
     1
1070
    44
1040
1.0
1070
    74
1070
     0
1000
MTEXTEND
  0
POINT
  5
1280
330
F20
100
AcDbEntity
  8
Defpoints
 62
     0
100
AcDbPoint
 10
832.2246326396404
 20
700.1372008438261
 30
0.0
  0
POINT
  5
1281
330
F20
100
AcDbEntity
  8
Defpoints
 62
     0
100
AcDbPoint
 10
818.2482826396404
 20
700.1372008438261
 30
0.0
  0
POINT
  5
1282
330
F20
100
AcDbEntity
  8
Defpoints
 62
     0
100
AcDbPoint
 10
818.2482826396404
 20
701.9972598441425
 30
0.0
  0
ENDBLK
  5
F2C
330
F20
100
AcDbEntity
  8
0
100
AcDbBlockEnd
  0
ENDSEC
  0
SECTION
  2
ENTITIES
  0
LINE
  5
AAE
330
1F
100
AcDbEntity
  8
PIC06
  6
Continuous
 62
     7
100
AcDbLine
 10
825.2364576396406
 20
685.6934667108462
 30
0.0
 11
829.9608576396403
 21
685.6934667108462
 31
0.0
  0
ARC
  5
AAF
330
1F
100
AcDbEntity
  8
PIC06
  6
Continuous
 62
     7
100
AcDbCircle
 10
751.3333877769367
 20
681.4853099897192
 30
0.0
 40
78.73999999999961
100
AcDbArc
 50
3.063557846117261
 51
8.942672901697552
  0
ARC
  5
AB0
330
1F
100
AcDbEntity
  8
PIC06
  6
Continuous
 62
     7
100
AcDbCircle
 10
829.5940957457988
 20
686.5596067108461
 30
0.0
 40
0.3149599999999986
100
AcDbArc
 50
3.709772108336881
 51
90.0
  0
ARC
  5
AB1
330
1F
100
AcDbEntity
  8
PIC06
  6
Continuous
 62
     7
100
AcDbCircle
 10
809.9738649028719
 20
688.4701125955674
 30
0.0
 40
19.6849999999999
100
AcDbArc
 50
355.3508538986457
 51
6.792629188251873
  0
ARC
  5
AB2
330
1F
100
AcDbEntity
  8
PIC06
  6
Continuous
 62
     7
100
AcDbCircle
 10
824.1800964521836
 20
702.0094261413654
 30
0.0
 40
8.661399999999956
100
AcDbArc
 50
309.8570274123921
 51
323.5277973876597
  0
ARC
  5
AB3
330
1F
100
AcDbEntity
  8
PIC06
  6
Continuous
 62
     7
100
AcDbCircle
 10
826.7128326396404
 20
700.1372008438261
 30
0.0
 40
5.511799999999968
100
AcDbArc
 50
323.5277973876597
 51
0.0
  0
ARC
  5
AB4
330
1F
100
AcDbEntity
  8
PIC06
  6
Continuous
 62
     7
100
AcDbCircle
 10
830.8663676396404
 20
694.0005367108462
 30
0.0
 40
1.771649999999991
100
AcDbArc
 50
129.8570274123921
 51
188.9426729016975
  0
LINE
  5
AB5
102
{ACAD_REACTORS
330
F38
102
}
330
1F
100
AcDbEntity
  8
PIC06
  6
Continuous
 62
     7
100
AcDbLine
 10
832.2246326396404
 20
700.1372008438261
 30
0.0
 11
832.2246326396404
 21
700.3391067108461
 31
0.0
  0
LINE
  5
AB6
330
1F
100
AcDbEntity
  8
PIC06
  6
Continuous
 62
     7
100
AcDbLine
 10
825.2364576396406
 20
700.6540667108461
 30
0.0
 11
831.9096726396404
 21
700.6540667108461
 31
0.0
  0
ARC
  5
AB7
330
1F
100
AcDbEntity
  8
PIC06
  6
Continuous
 62
     7
100
AcDbCircle
 10
831.9096726396404
 20
700.3391067108461
 30
0.0
 40
0.3149599999999986
100
AcDbArc
 50
0.0
 51
90.0
  0
LINE
  5
AB8
330
1F
100
AcDbEntity
  8
PIC06
  6
CENTER
 62
     7
100
AcDbLine
 10
779.9562478496016
 20
714.4182775023671
 30
0.0
 11
805.5876497328412
 21
714.4182775023671
 31
0.0
  0
LINE
  5
AB9
330
1F
100
AcDbEntity
  8
PIC06
  6
CENTER
 62
     7
100
AcDbLine
 10
788.5844005766523
 20
712.863181726
 30
0.0
 11
788.5844005766523
 21
715.9356949584219
 31
0.0
  0
LINE
  5
ABA
330
1F
100
AcDbEntity
  8
PIC06
  6
CENTER
 62
     7
100
AcDbLine
 10
785.0411005766524
 20
713.5124923641225
 30
0.0
 11
785.0411005766524
 21
715.3198526650259
 31
0.0
  0
LINE
  5
ABB
330
1F
100
AcDbEntity
  8
PIC06
  6
CENTER
 62
     7
100
AcDbLine
 10
794.4862625041426
 20
710.6781275023671
 30
0.0
 11
793.6577683845747
 21
710.6781275023671
 31
0.0
  0
LINE
  5
ABC
330
1F
100
AcDbEntity
  8
PIC06
  6
CENTER
 62
     7
100
AcDbLine
 10
794.5546698015058
 20
718.1584275023672
 30
0.0
 11
793.695772305168
 21
718.1584275023672
 31
0.0
  0
LINE
  5
ABD
330
1F
100
AcDbEntity
  8
PIC06
  6
CENTER
 62
     7
100
AcDbLine
 10
825.2364576396406
 20
685.3258760086368
 30
0.0
 11
825.2364576396406
 21
701.6607554962465
 31
0.0
  0
ARC
  5
ABE
330
1F
100
AcDbEntity
  8
PIC06
  6
DASHED
 62
     7
100
AcDbCircle
 10
826.2337806266247
 20
693.2131367108462
 30
0.0
 40
0.2362199999999988
100
AcDbArc
 50
270.0
 51
356.739753420958
  0
LINE
  5
ABF
330
1F
100
AcDbEntity
  8
PIC06
  6
DASHED
 62
     7
100
AcDbLine
 10
826.2337806266247
 20
692.9769167108462
 30
0.0
 11
825.2364576396406
 21
692.9769167108462
 31
0.0
  0
LINE
  5
AC0
330
1F
100
AcDbEntity
  8
PIC06
  6
DASHED
 62
     7
100
AcDbLine
 10
826.6444994645675
 20
698.0950167108461
 30
0.0
 11
826.6444994645675
 21
698.8430467108461
 31
0.0
  0
ARC
  5
AC1
330
1F
100
AcDbEntity
  8
PIC06
  6
DASHED
 62
     7
100
AcDbCircle
 10
825.0696994645675
 20
698.0950167108461
 30
0.0
 40
1.574799999999992
100
AcDbArc
 50
294.6047490970087
 51
0.0
  0
LINE
  5
AC2
330
1F
100
AcDbEntity
  8
PIC06
  6
DASHED
 62
     7
100
AcDbLine
 10
826.7626094645676
 20
698.9611567108461
 30
0.0
 11
829.4475509506272
 21
698.9611567108461
 31
0.0
  0
ARC
  5
AC3
330
1F
100
AcDbEntity
  8
PIC06
  6
DASHED
 62
     7
100
AcDbCircle
 10
826.7626094645676
 20
698.8430467108461
 30
0.0
 40
0.1181099999999995
100
AcDbArc
 50
90.0
 51
180.0
  0
LINE
  5
AC4
330
1F
100
AcDbEntity
  8
PIC06
  6
DASHED
 62
     7
100
AcDbLine
 10
829.5656609506272
 20
698.4535821778358
 30
0.0
 11
829.5656609506272
 21
698.8430467108461
 31
0.0
  0
ARC
  5
AC5
330
1F
100
AcDbEntity
  8
PIC06
  6
DASHED
 62
     7
100
AcDbCircle
 10
825.2349609506273
 20
698.4535821778358
 30
0.0
 40
4.330699999999977
100
AcDbArc
 50
289.1806727337258
 51
0.0
  0
ARC
  5
AC6
330
1F
100
AcDbEntity
  8
PIC06
  6
DASHED
 62
     7
100
AcDbCircle
 10
829.4475509506272
 20
698.8430467108461
 30
0.0
 40
0.1181099999999995
100
AcDbArc
 50
0.0
 51
90.0
  0
ARC
  5
AC7
330
1F
100
AcDbEntity
  8
PIC06
  6
DASHED
 62
     7
100
AcDbCircle
 10
827.0367323688814
 20
693.7995846122853
 30
0.0
 40
3.149599999999985
100
AcDbArc
 50
114.6047475697399
 51
169.7653612454031
  0
LINE
  5
AC8
330
1F
100
AcDbEntity
  8
PIC06
  6
DASHED
 62
     7
100
AcDbLine
 10
827.2678920661432
 20
697.9769067108462
 30
0.0
 11
828.682846427622
 21
697.9769067108462
 31
0.0
  0
LINE
  5
AC9
330
1F
100
AcDbEntity
  8
PIC06
  6
DASHED
 62
     7
100
AcDbLine
 10
827.2678920661432
 20
698.4887167108462
 30
0.0
 11
828.682846427622
 21
698.4887167108462
 31
0.0
  0
ARC
  5
ACA
330
1F
100
AcDbEntity
  8
PIC06
  6
DASHED
 62
     7
100
AcDbCircle
 10
828.682846427622
 20
698.2328117108461
 30
0.0
 40
0.2559049999999988
100
AcDbArc
 50
270.0
 51
90.0
  0
ARC
  5
ACB
330
1F
100
AcDbEntity
  8
PIC06
  6
DASHED
 62
     7
100
AcDbCircle
 10
827.2678920661432
 20
698.2328117108461
 30
0.0
 40
0.2559049999999988
100
AcDbArc
 50
90.0
 51
270.0
  0
LINE
  5
ACC
330
1F
100
AcDbEntity
  8
PIC06
  6
CENTER
 62
     7
100
AcDbLine
 10
794.0962005766523
 20
710.2760339836903
 30
0.0
 11
794.0962005766523
 21
711.1045281032582
 31
0.0
  0
LINE
  5
ACD
330
1F
100
AcDbEntity
  8
PIC06
  6
CENTER
 62
     7
100
AcDbLine
 10
794.0962005766523
 20
717.7324786568472
 30
0.0
 11
794.0962005766523
 21
718.560972776415
 31
0.0
  0
LINE
  5
ACE
330
1F
100
AcDbEntity
  8
PIC06
  6
Continuous
 62
     7
100
AcDbLine
 10
825.2364576396406
 20
685.6934667108462
 30
0.0
 11
820.5120576396405
 21
685.6934667108462
 31
0.0
  0
ARC
  5
ACF
330
1F
100
AcDbEntity
  8
PIC06
  6
Continuous
 62
     7
100
AcDbCircle
 10
899.1395275023442
 20
681.4853099897192
 30
0.0
 40
78.73999999999961
100
AcDbArc
 50
171.0573270983024
 51
176.9364421538827
  0
ARC
  5
AD0
330
1F
100
AcDbEntity
  8
PIC06
  6
Continuous
 62
     7
100
AcDbCircle
 10
840.4990503764093
 20
688.4701125955674
 30
0.0
 40
19.6849999999999
100
AcDbArc
 50
173.2073708117481
 51
184.6491461013543
  0
ARC
  5
AD1
330
1F
100
AcDbEntity
  8
PIC06
  6
Continuous
 62
     7
100
AcDbCircle
 10
826.2928188270972
 20
702.0094261413654
 30
0.0
 40
8.661399999999956
100
AcDbArc
 50
216.4722026123403
 51
230.1429725876079
  0
ARC
  5
AD2
330
1F
100
AcDbEntity
  8
PIC06
  6
Continuous
 62
     7
100
AcDbCircle
 10
823.7600826396404
 20
700.1372008438261
 30
0.0
 40
5.511799999999968
100
AcDbArc
 50
180.0
 51
216.4722026123403
  0
ARC
  5
AD3
330
1F
100
AcDbEntity
  8
PIC06
  6
Continuous
 62
     7
100
AcDbCircle
 10
819.6065476396404
 20
694.0005367108462
 30
0.0
 40
1.771649999999991
100
AcDbArc
 50
351.0573270983024
 51
50.14297258760792
  0
LINE
  5
AD4
102
{ACAD_REACTORS
330
F38
102
}
330
1F
100
AcDbEntity
  8
PIC06
  6
Continuous
 62
     7
100
AcDbLine
 10
818.2482826396404
 20
700.1372008438261
 30
0.0
 11
818.2482826396404
 21
700.3391067108461
 31
0.0
  0
LINE
  5
AD5
330
1F
100
AcDbEntity
  8
PIC06
  6
Continuous
 62
     7
100
AcDbLine
 10
825.2364576396406
 20
700.6540667108461
 30
0.0
 11
818.5632426396406
 21
700.6540667108461
 31
0.0
  0
ARC
  5
AD6
330
1F
100
AcDbEntity
  8
PIC06
  6
Continuous
 62
     7
100
AcDbCircle
 10
818.5632426396406
 20
700.3391067108461
 30
0.0
 40
0.3149599999999986
100
AcDbArc
 50
90.0
 51
180.0
  0
LINE
  5
AD7
330
1F
100
AcDbEntity
  8
PIC06
  6
DASHED
 62
     7
100
AcDbLine
 10
823.9469679301581
 20
694.1885640457954
 30
0.0
 11
824.0032969709822
 21
693.1997025639581
 31
0.0
  0
ARC
  5
AD8
330
1F
100
AcDbEntity
  8
PIC06
  6
DASHED
 62
     7
100
AcDbCircle
 10
824.2391346526563
 20
693.2131367108462
 30
0.0
 40
0.2362199999999988
100
AcDbArc
 50
183.2602465790419
 51
270.0
  0
ARC
  5
AD9
330
1F
100
AcDbEntity
  8
PIC06
  6
DASHED
 62
     7
100
AcDbCircle
 10
823.750436528763
 20
694.1773689233888
 30
0.0
 40
0.196849999999999
100
AcDbArc
 50
3.260246579041981
 51
84.89945743761964
  0
LINE
  5
ADA
330
1F
100
AcDbEntity
  8
PIC06
  6
DASHED
 62
     7
100
AcDbLine
 10
824.2391346526563
 20
692.9769167108462
 30
0.0
 11
825.2364576396406
 21
692.9769167108462
 31
0.0
  0
ARC
  5
ADB
330
1F
100
AcDbEntity
  8
PIC06
  6
Continuous
 62
     7
100
AcDbCircle
 10
820.8788195334822
 20
686.5596067108461
 30
0.0
 40
0.3149599999999986
100
AcDbArc
 50
90.0
 51
176.2902278916631
  0
ARC
  5
ADC
330
1F
100
AcDbEntity
  8
PIC06
  6
DASHED
 62
     7
100
AcDbCircle
 10
821.0635374403628
 20
686.3627567108462
 30
0.0
 40
0.1181099999999995
100
AcDbArc
 50
90.0
 51
176.425348850017
  0
ARC
  5
ADD
330
1F
100
AcDbEntity
  8
PIC06
  6
DASHED
 62
     7
100
AcDbCircle
 10
899.1395275023442
 20
681.4853099897192
 30
0.0
 40
78.34629999999966
100
AcDbArc
 50
176.4253488158664
 51
176.9210325921044
  0
LINE
  5
ADE
330
1F
100
AcDbEntity
  8
PIC06
  6
DASHED
 62
     7
100
AcDbLine
 10
820.8788195334822
 20
686.8745667108462
 30
0.0
 11
822.1509975388043
 21
686.8745667108462
 31
0.0
  0
LINE
  5
ADF
330
1F
100
AcDbEntity
  8
PIC06
  6
DASHED
 62
     7
100
AcDbLine
 10
821.2797726396406
 20
686.4808667108462
 30
0.0
 11
821.2797726396406
 21
686.8745667108462
 31
0.0
  0
LINE
  5
AE0
330
1F
100
AcDbEntity
  8
PIC06
  6
CENTER
 62
     7
100
AcDbLine
 10
821.4963076396404
 20
686.2684816125796
 30
0.0
 11
821.4963076396404
 21
687.0860603131411
 31
0.0
  0
LINE
  5
AE1
330
1F
100
AcDbEntity
  8
PIC06
  6
DASHED
 62
     7
100
AcDbLine
 10
821.0635374403628
 20
686.4808667108462
 30
0.0
 11
822.1771144354434
 21
686.4808667108462
 31
0.0
  0
LINE
  5
AE2
330
1F
100
AcDbEntity
  8
PIC06
  6
DASHED
 62
     7
100
AcDbLine
 10
821.7128426396405
 20
686.4808667108462
 30
0.0
 11
821.7128426396405
 21
686.8745667108462
 31
0.0
  0
ARC
  5
AE3
330
1F
100
AcDbEntity
  8
PIC06
  6
DASHED
 62
     7
100
AcDbCircle
 10
825.2364576396406
 20
710.8261762188118
 30
0.0
 40
16.51814455884158
100
AcDbArc
 50
264.1341378797058
 51
264.8994720069553
  0
ARC
  5
AE4
330
1F
100
AcDbEntity
  8
PIC06
  6
DASHED
 62
     7
100
AcDbCircle
 10
823.750436528763
 20
694.1773689233888
 30
0.0
 40
0.1968499999999989
100
AcDbArc
 50
3.260246579041981
 51
84.89947200695532
  0
ARC
  5
AE5
330
1F
100
AcDbEntity
  8
PIC06
  6
DASHED
 62
     7
100
AcDbCircle
 10
824.2391346526563
 20
693.2131367108462
 30
0.0
 40
0.2362199999999988
100
AcDbArc
 50
183.2602465790419
 51
270.0
  0
LINE
  5
AE6
330
1F
100
AcDbEntity
  8
PIC06
  6
DASHED
 62
     7
100
AcDbLine
 10
824.2391346526563
 20
692.9769167108462
 30
0.0
 11
825.2364576396406
 21
692.9769167108462
 31
0.0
  0
ARC
  5
AE7
330
1F
100
AcDbEntity
  8
PIC06
  6
DASHED
 62
     7
100
AcDbCircle
 10
826.7224787505179
 20
694.1773689233888
 30
0.0
 40
0.1968499999999989
100
AcDbArc
 50
95.10052799304469
 51
176.739753420958
  0
LINE
  5
AE8
330
1F
100
AcDbEntity
  8
PIC06
  6
DASHED
 62
     7
100
AcDbLine
 10
826.5259473491228
 20
694.1885640457954
 30
0.0
 11
826.4696183082987
 21
693.1997025639581
 31
0.0
  0
LINE
  5
AE9
330
1F
100
AcDbEntity
  8
PIC06
  6
CENTER
 62
     7
100
AcDbLine
 10
828.9766076396405
 20
686.2684816125796
 30
0.0
 11
828.9766076396405
 21
687.0860603131411
 31
0.0
  0
LINE
  5
AEA
330
1F
100
AcDbEntity
  8
PIC06
  6
DASHED
 62
     7
100
AcDbLine
 10
828.7600726396405
 20
686.4808667108462
 30
0.0
 11
828.7600726396405
 21
686.8745667108462
 31
0.0
  0
ARC
  5
AEB
330
1F
100
AcDbEntity
  8
PIC06
  6
DASHED
 62
     7
100
AcDbCircle
 10
829.4093778389182
 20
686.3627567108462
 30
0.0
 40
0.1181099999999995
100
AcDbArc
 50
3.574651149982983
 51
90.0
  0
LINE
  5
AEC
330
1F
100
AcDbEntity
  8
PIC06
  6
DASHED
 62
     7
100
AcDbLine
 10
829.1931426396404
 20
686.4808667108462
 30
0.0
 11
829.1931426396404
 21
686.8745667108462
 31
0.0
  0
ARC
  5
AED
330
1F
100
AcDbEntity
  8
PIC06
  6
DASHED
 62
     7
100
AcDbCircle
 10
751.3333877769367
 20
681.4853099897192
 30
0.0
 40
78.34629999999966
100
AcDbArc
 50
3.078967407895603
 51
3.574651184133525
  0
LINE
  5
AEE
330
1F
100
AcDbEntity
  8
PIC06
  6
Continuous
 62
     7
100
AcDbLine
 10
780.3167005766525
 20
709.8907275023671
 30
0.0
 11
780.3167005766525
 21
718.9458275023671
 31
0.0
  0
ARC
  5
AEF
330
1F
100
AcDbEntity
  8
PIC06
  6
Continuous
 62
     7
100
AcDbCircle
 10
799.0568205766522
 20
714.4182775023671
 30
0.0
 40
6.062979999999964
100
AcDbArc
 50
303.6904884351352
 51
56.30951156486476
  0
ARC
  5
AF0
330
1F
100
AcDbEntity
  8
PIC06
  6
Continuous
 62
     7
100
AcDbCircle
 10
794.8836005766524
 20
729.4773025023671
 30
0.0
 40
22.0471999999999
100
AcDbArc
 50
270.0
 51
277.4091284608549
  0
ARC
  5
AF1
330
1F
100
AcDbEntity
  8
PIC06
  6
Continuous
 62
     7
100
AcDbCircle
 10
796.3051333677918
 20
718.5457426189966
 30
0.0
 40
11.02359999999994
100
AcDbArc
 50
277.4091284608549
 51
303.6904884351352
  0
ARC
  5
AF2
330
1F
100
AcDbEntity
  8
PIC06
  6
Continuous
 62
     7
100
AcDbCircle
 10
794.8836005766524
 20
723.178102502367
 30
0.0
 40
15.74799999999995
100
AcDbArc
 50
264.9422693087684
 51
270.0
  0
ARC
  5
AF3
330
1F
100
AcDbEntity
  8
PIC06
  6
Continuous
 62
     7
100
AcDbCircle
 10
814.8012761530598
 20
855.4680927873414
 30
0.0
 40
149.6059999999993
100
AcDbArc
 50
256.6733348761341
 51
260.3601330253842
  0
ARC
  5
AF4
330
1F
100
AcDbEntity
  8
PIC06
  6
Continuous
 62
     7
100
AcDbCircle
 10
797.6602707647725
 20
754.5514688927689
 30
0.0
 40
47.24399999999977
100
AcDbArc
 50
260.3601330253842
 51
264.9422693087684
  0
ARC
  5
AF5
330
1F
100
AcDbEntity
  8
PIC06
  6
Continuous
 62
     7
100
AcDbCircle
 10
796.3051333677918
 20
710.2908123857377
 30
0.0
 40
11.02359999999994
100
AcDbArc
 50
56.30951156486476
 51
82.59087153914506
  0
ARC
  5
AF6
330
1F
100
AcDbEntity
  8
PIC06
  6
Continuous
 62
     7
100
AcDbCircle
 10
794.8836005766524
 20
699.3592525023672
 30
0.0
 40
22.0471999999999
100
AcDbArc
 50
82.59087153914506
 51
90.0
  0
ARC
  5
AF7
330
1F
100
AcDbEntity
  8
PIC06
  6
Continuous
 62
     7
100
AcDbCircle
 10
797.6602707647725
 20
674.2850861119653
 30
0.0
 40
47.24399999999977
100
AcDbArc
 50
95.05773069123156
 51
99.6398669746158
  0
ARC
  5
AF8
330
1F
100
AcDbEntity
  8
PIC06
  6
Continuous
 62
     7
100
AcDbCircle
 10
794.8836005766524
 20
705.6584525023672
 30
0.0
 40
15.74799999999995
100
AcDbArc
 50
90.0
 51
95.05773069123156
  0
ARC
  5
AF9
330
1F
100
AcDbEntity
  8
PIC06
  6
Continuous
 62
     7
100
AcDbCircle
 10
814.8012761530598
 20
573.3684622173929
 30
0.0
 40
149.6059999999993
100
AcDbArc
 50
99.6398669746158
 51
103.3266651238659
  0
ARC
  5
AFA
330
1F
100
AcDbEntity
  8
PIC06
  6
Continuous
 62
     7
100
AcDbCircle
 10
798.8206005766523
 20
714.4182775023671
 30
0.0
 40
3.54329999999998
100
AcDbArc
 50
302.0431431807915
 51
57.95685681920845
  0
ARC
  5
AFB
330
1F
100
AcDbEntity
  8
PIC06
  6
Continuous
 62
     7
100
AcDbCircle
 10
794.8836005766524
 20
725.737152502367
 30
0.0
 40
15.74799999999992
100
AcDbArc
 50
270.0
 51
279.9259356362046
  0
ARC
  5
AFC
330
1F
100
AcDbEntity
  8
PIC06
  6
Continuous
 62
     7
100
AcDbCircle
 10
794.8836005766524
 20
741.4851525023671
 30
0.0
 40
31.49599999999987
100
AcDbArc
 50
262.2520743282459
 51
270.0
  0
ARC
  5
AFD
330
1F
100
AcDbEntity
  8
PIC06
  6
Continuous
 62
     7
100
AcDbCircle
 10
796.1051532831715
 20
718.7566289872433
 30
0.0
 40
8.661399999999956
100
AcDbArc
 50
279.9259356362046
 51
302.0431431807915
  0
ARC
  5
AFE
330
1F
100
AcDbEntity
  8
PIC06
  6
Continuous
 62
     7
100
AcDbCircle
 10
799.2143005766523
 20
714.4182775023671
 30
0.0
 40
11.81099999999997
100
AcDbArc
 50
166.8503673756347
 51
193.1496306968059
  0
ARC
  5
AFF
330
1F
100
AcDbEntity
  8
PIC06
  6
Continuous
 62
     7
100
AcDbCircle
 10
789.0521874370293
 20
712.0560775023671
 30
0.0
 40
1.377949999999996
100
AcDbArc
 50
193.086104758003
 51
251.4322396702677
  0
ARC
  5
B00
330
1F
100
AcDbEntity
  8
PIC06
  6
Continuous
 62
     7
100
AcDbCircle
 10
792.1236128033815
 20
721.1996495692033
 30
0.0
 40
11.02359999999994
100
AcDbArc
 50
251.4322396702677
 51
262.2520743282459
  0
ARC
  5
B01
330
1F
100
AcDbEntity
  8
PIC06
  6
Continuous
 62
     7
100
AcDbCircle
 10
796.1051532831715
 20
710.0799260174908
 30
0.0
 40
8.661399999999956
100
AcDbArc
 50
57.95685681920845
 51
80.07406436379538
  0
ARC
  5
B02
330
1F
100
AcDbEntity
  8
PIC06
  6
Continuous
 62
     7
100
AcDbCircle
 10
794.8836005766524
 20
703.0994025023671
 30
0.0
 40
15.74799999999992
100
AcDbArc
 50
80.07406436379538
 51
90.0
  0
ARC
  5
B03
330
1F
100
AcDbEntity
  8
PIC06
  6
Continuous
 62
     7
100
AcDbCircle
 10
794.8836005766524
 20
687.3514025023673
 30
0.0
 40
31.49599999999987
100
AcDbArc
 50
90.0
 51
97.74792567175408
  0
ARC
  5
B04
330
1F
100
AcDbEntity
  8
PIC06
  6
Continuous
 62
     7
100
AcDbCircle
 10
792.1236128033815
 20
707.6369054355309
 30
0.0
 40
11.02359999999994
100
AcDbArc
 50
97.74792567175408
 51
108.5677603297323
  0
ARC
  5
B05
330
1F
100
AcDbEntity
  8
PIC06
  6
Continuous
 62
     7
100
AcDbCircle
 10
789.0521874370293
 20
716.7804775023671
 30
0.0
 40
1.377949999999996
100
AcDbArc
 50
108.5677603297323
 51
166.9138952419969
  0
ARC
  5
B06
330
1F
100
AcDbEntity
  8
PIC06
  6
Continuous
 62
     7
100
AcDbCircle
 10
795.380531581942
 20
713.5226300855798
 30
0.0
 40
7.873999999999961
100
AcDbArc
 50
193.1496306968059
 51
220.2608266706024
  0
ARC
  5
B07
330
1F
100
AcDbEntity
  8
PIC06
  6
Continuous
 62
     7
100
AcDbCircle
 10
795.380531581942
 20
715.3139249191545
 30
0.0
 40
7.873999999999961
100
AcDbArc
 50
139.7391733293976
 51
166.8503664119355
  0
ARC
  5
B08
330
1F
100
AcDbEntity
  8
PIC06
  6
Continuous
 62
     7
100
AcDbCircle
 10
788.5844005766523
 20
714.4182775023671
 30
0.0
 40
1.220469999999989
100
AcDbArc
 50
195.3994466359875
 51
164.6005533640125
  0
LINE
  5
B09
330
1F
100
AcDbEntity
  8
PIC06
  6
Continuous
 62
     7
100
AcDbLine
 10
780.3167005766525
 20
700.6540667108461
 30
0.0
 11
804.8048405766522
 21
700.6540667108461
 31
0.0
  0
LINE
  5
B0A
330
1F
100
AcDbEntity
  8
PIC06
  6
Continuous
 62
     7
100
AcDbLine
 10
788.5844005766523
 20
685.6934667108462
 30
0.0
 11
801.9702005766523
 21
685.6934667108462
 31
0.0
  0
LINE
  5
B0B
330
1F
100
AcDbEntity
  8
PIC06
  6
Continuous
 62
     7
100
AcDbLine
 10
780.3167005766525
 20
699.4729667108461
 30
0.0
 11
780.3167005766525
 21
700.6540667108461
 31
0.0
  0
LINE
  5
B0C
330
1F
100
AcDbEntity
  8
PIC06
  6
Continuous
 62
     7
100
AcDbLine
 10
802.3639005766522
 20
699.8123952198194
 30
0.0
 11
802.3639005766522
 21
699.9640325897031
 31
0.0
  0
LINE
  5
B0D
330
1F
100
AcDbEntity
  8
PIC06
  6
Continuous
 62
     7
100
AcDbLine
 10
786.6886788475263
 20
699.1580067108461
 30
0.0
 11
804.2131494738233
 21
699.1580067108461
 31
0.0
  0
ARC
  5
B0E
330
1F
100
AcDbEntity
  8
PIC06
  6
Continuous
 62
     7
100
AcDbCircle
 10
804.8048405766522
 20
700.3391067108461
 30
0.0
 40
0.3149599999999986
100
AcDbArc
 50
353.0379373089197
 51
91.36497922418859
  0
ARC
  5
B0F
330
1F
100
AcDbEntity
  8
PIC06
  6
Continuous
 62
     7
100
AcDbCircle
 10
799.6463188136663
 20
700.9690267108461
 30
0.0
 40
5.511799999999976
100
AcDbArc
 50
316.3280937610188
 51
353.0379373089197
  0
ARC
  5
B10
330
1F
100
AcDbEntity
  8
PIC06
  6
Continuous
 62
     7
100
AcDbCircle
 10
799.6463188136663
 20
700.9690267108461
 30
0.0
 40
5.118099999999977
100
AcDbArc
 50
316.3280913833546
 51
337.6614726292944
  0
LINE
  5
B11
330
1F
100
AcDbEntity
  8
PIC06
  6
Continuous
 62
     7
100
AcDbLine
 10
802.6199956519688
 20
699.5029849384097
 30
0.0
 11
804.2931556695201
 21
699.1846683072755
 31
0.0
  0
ARC
  5
B12
330
1F
100
AcDbEntity
  8
PIC06
  6
Continuous
 62
     7
100
AcDbCircle
 10
802.6788605766522
 20
699.8123952198194
 30
0.0
 40
0.3149599999999981
100
AcDbArc
 50
180.0
 51
259.2282768299337
  0
ARC
  5
B13
330
1F
100
AcDbEntity
  8
PIC06
  6
Continuous
 62
     7
100
AcDbCircle
 10
804.2710813227637
 20
699.0686394517468
 30
0.0
 40
0.1181099999999995
100
AcDbArc
 50
337.6614726292944
 51
79.22827682993363
  0
LINE
  5
B14
330
1F
100
AcDbEntity
  8
PIC06
  6
Continuous
 62
     7
100
AcDbLine
 10
802.7108724610668
 20
699.8063049982648
 30
0.0
 11
804.3520205942035
 21
699.4940785886852
 31
0.0
  0
ARC
  5
B15
330
1F
100
AcDbEntity
  8
PIC06
  6
Continuous
 62
     7
100
AcDbCircle
 10
804.2710813227637
 20
699.0686394517468
 30
0.0
 40
0.4330699999999977
100
AcDbArc
 50
42.81513448617182
 51
79.22827682993363
  0
ARC
  5
B16
330
1F
100
AcDbEntity
  8
PIC06
  6
Continuous
 62
     7
100
AcDbCircle
 10
799.6463188136663
 20
700.9690267108461
 30
0.0
 40
5.196839999999968
100
AcDbArc
 50
341.9983096621606
 51
353.0379373089197
  0
ARC
  5
B17
330
1F
100
AcDbEntity
  8
PIC06
  6
Continuous
 62
     7
100
AcDbCircle
 10
802.7182305766523
 20
699.844981283441
 30
0.0
 40
0.0393699999999998
100
AcDbArc
 50
180.0
 51
259.2282768299337
  0
ARC
  5
B18
330
1F
100
AcDbEntity
  8
PIC06
  6
Continuous
 62
     7
100
AcDbCircle
 10
804.3324005766523
 20
694.0005367108462
 30
0.0
 40
3.936999999999981
100
AcDbArc
 50
180.0
 51
193.943742675416
  0
ARC
  5
B19
330
1F
100
AcDbEntity
  8
PIC06
  6
Continuous
 62
     7
100
AcDbCircle
 10
724.0916592823359
 20
674.0779423632586
 30
0.0
 40
78.73999999999961
100
AcDbArc
 50
8.483086693710429
 51
13.94373881164683
  0
ARC
  5
B1A
330
1F
100
AcDbEntity
  8
PIC06
  6
Continuous
 62
     7
100
AcDbCircle
 10
801.9702005766523
 20
694.0005367108462
 30
0.0
 40
1.574799999999991
100
AcDbArc
 50
116.7168342044687
 51
180.0
  0
ARC
  5
B1B
330
1F
100
AcDbEntity
  8
PIC06
  6
Continuous
 62
     7
100
AcDbCircle
 10
797.3681948079915
 20
703.1439131848416
 30
0.0
 40
8.661399999999956
100
AcDbArc
 50
296.7168342044687
 51
316.3280937610188
  0
ARC
  5
B1C
330
1F
100
AcDbEntity
  8
PIC06
  6
Continuous
 62
     7
100
AcDbCircle
 10
797.3681948079915
 20
703.1439131848416
 30
0.0
 40
8.267699999999956
100
AcDbArc
 50
304.8767588928544
 51
316.3280937610188
  0
ARC
  5
B1D
330
1F
100
AcDbEntity
  8
PIC06
  6
Continuous
 62
     7
100
AcDbCircle
 10
799.8445460510602
 20
699.5910767108462
 30
0.0
 40
3.936999999999949
100
AcDbArc
 50
276.602491705708
 51
304.8767579013755
  0
LINE
  5
B1E
330
1F
100
AcDbEntity
  8
PIC06
  6
Continuous
 62
     7
100
AcDbLine
 10
787.3639305766523
 20
694.7485667108461
 30
0.0
 11
789.8048705766523
 21
694.7485667108461
 31
0.0
  0
LINE
  5
B1F
330
1F
100
AcDbEntity
  8
PIC06
  6
Continuous
 62
     7
100
AcDbLine
 10
787.7379455766523
 20
694.3548667108461
 30
0.0
 11
789.4308555766523
 21
694.3548667108461
 31
0.0
  0
LINE
  5
B20
330
1F
100
AcDbEntity
  8
PIC06
  6
Continuous
 62
     7
100
AcDbLine
 10
787.527926651049
 20
694.1186467108462
 30
0.0
 11
789.5861391184093
 21
694.1186467108462
 31
0.0
  0
LINE
  5
B21
330
1F
100
AcDbEntity
  8
PIC06
  6
Continuous
 62
     7
100
AcDbLine
 10
787.6738917025266
 20
693.2918767108461
 30
0.0
 11
789.5156284400445
 21
693.2918767108461
 31
0.0
  0
LINE
  5
B22
330
1F
100
AcDbEntity
  8
PIC06
  6
Continuous
 62
     7
100
AcDbLine
 10
787.6177188229371
 20
692.9769167108462
 30
0.0
 11
789.5817235636366
 21
692.9769167108462
 31
0.0
  0
ARC
  5
B23
330
1F
100
AcDbEntity
  8
PIC06
  6
Continuous
 62
     7
100
AcDbCircle
 10
724.0916592823359
 20
674.0779423632586
 30
0.0
 40
78.34629999999966
100
AcDbArc
 50
8.526031918717681
 51
8.671627782297639
  0
LINE
  5
B24
330
1F
100
AcDbEntity
  8
PIC06
  6
Continuous
 62
     7
100
AcDbLine
 10
787.4033005766524
 20
699.7463626959428
 30
0.0
 11
787.4033005766524
 21
700.3391067108461
 31
0.0
  0
LINE
  5
B25
330
1F
100
AcDbEntity
  8
PIC06
  6
Continuous
 62
     7
100
AcDbLine
 10
780.3167005766525
 20
699.4729667108461
 30
0.0
 11
780.9072505766525
 21
699.4729667108461
 31
0.0
  0
LINE
  5
B26
330
1F
100
AcDbEntity
  8
PIC06
  6
Continuous
 62
     7
100
AcDbLine
 10
780.5135505766523
 20
699.4729667108461
 30
0.0
 11
780.5135505766523
 21
700.1422567108461
 31
0.0
  0
LINE
  5
B27
330
1F
100
AcDbEntity
  8
PIC06
  6
Continuous
 62
     7
100
AcDbLine
 10
780.3167005766525
 20
700.2603667108461
 30
0.0
 11
780.3954405766524
 21
700.2603667108461
 31
0.0
  0
LINE
  5
B28
330
1F
100
AcDbEntity
  8
PIC06
  6
Continuous
 62
     7
100
AcDbLine
 10
787.2291949706911
 20
699.4646539078654
 30
0.0
 11
786.6819796694317
 21
699.1910462572358
 31
0.0
  0
ARC
  5
B29
330
1F
100
AcDbEntity
  8
PIC06
  6
Continuous
 62
     7
100
AcDbCircle
 10
787.0883405766524
 20
700.3391067108461
 30
0.0
 40
0.3149599999999986
100
AcDbArc
 50
0.0
 51
90.0
  0
ARC
  5
B2A
330
1F
100
AcDbEntity
  8
PIC06
  6
Continuous
 62
     7
100
AcDbCircle
 10
787.0883405766524
 20
699.7463626959428
 30
0.0
 40
0.3149599999999991
100
AcDbArc
 50
296.565051177078
 51
0.0
  0
ARC
  5
B2B
330
1F
100
AcDbEntity
  8
PIC06
  6
Continuous
 62
     7
100
AcDbCircle
 10
788.5844005766523
 20
696.032777247168
 30
0.0
 40
1.771649999999992
100
AcDbArc
 50
186.6219754552623
 51
226.457780971811
  0
ARC
  5
B2C
330
1F
100
AcDbEntity
  8
PIC06
  6
Continuous
 62
     7
100
AcDbCircle
 10
818.1104475968966
 20
699.4605360310987
 30
0.0
 40
31.49599999999984
100
AcDbArc
 50
180.6850017775481
 51
186.6219789405558
  0
ARC
  5
B2D
330
1F
100
AcDbEntity
  8
PIC06
  6
Continuous
 62
     7
100
AcDbCircle
 10
818.1104475968966
 20
699.4605360310987
 30
0.0
 40
31.88969999999985
100
AcDbArc
 50
180.5469452360993
 51
184.8567865757961
  0
LINE
  5
B2E
330
1F
100
AcDbEntity
  8
PIC06
  6
Continuous
 62
     7
100
AcDbLine
 10
786.2222005766524
 20
699.1561217313818
 30
0.0
 11
786.2222005766524
 21
700.0635167108462
 31
0.0
  0
LINE
  5
B2F
330
1F
100
AcDbEntity
  8
PIC06
  6
Continuous
 62
     7
100
AcDbLine
 10
781.0253605766523
 20
700.2603667108461
 30
0.0
 11
786.0253505766523
 21
700.2603667108461
 31
0.0
  0
ARC
  5
B30
330
1F
100
AcDbEntity
  8
PIC06
  6
Continuous
 62
     7
100
AcDbCircle
 10
786.7348000671962
 20
699.0854054617068
 30
0.0
 40
0.1181099999999986
100
AcDbArc
 50
116.565051177078
 51
180.6850017775481
  0
LINE
  5
B31
330
1F
100
AcDbEntity
  8
PIC06
  6
Continuous
 62
     7
100
AcDbLine
 10
787.0883405766524
 20
699.7463626959428
 30
0.0
 11
786.5371605766523
 21
699.4707726959428
 31
0.0
  0
LINE
  5
B32
330
1F
100
AcDbEntity
  8
PIC06
  6
Continuous
 62
     7
100
AcDbLine
 10
787.0883405766524
 20
699.7463626959428
 30
0.0
 11
787.0883405766524
 21
700.3391067108461
 31
0.0
  0
LINE
  5
B33
330
1F
100
AcDbEntity
  8
PIC06
  6
Continuous
 62
     7
100
AcDbLine
 10
786.6552705766523
 20
700.3391067108461
 30
0.0
 11
787.0883405766524
 21
700.3391067108461
 31
0.0
  0
LINE
  5
B34
330
1F
100
AcDbEntity
  8
PIC06
  6
Continuous
 62
     7
100
AcDbLine
 10
786.5371605766523
 20
699.4707726959428
 30
0.0
 11
786.5371605766523
 21
700.2209967108462
 31
0.0
  0
ARC
  5
B35
330
1F
100
AcDbEntity
  8
PIC06
  6
Continuous
 62
     7
100
AcDbCircle
 10
786.6552705766523
 20
700.2209967108462
 30
0.0
 40
0.1181099999999995
100
AcDbArc
 50
90.0
 51
180.0
  0
ARC
  5
B36
330
1F
100
AcDbEntity
  8
PIC06
  6
Continuous
 62
     7
100
AcDbCircle
 10
786.0253505766523
 20
700.0635167108462
 30
0.0
 40
0.1968499999999991
100
AcDbArc
 50
0.0
 51
90.0
  0
LINE
  5
B37
330
1F
100
AcDbEntity
  8
PIC06
  6
Continuous
 62
     7
100
AcDbLine
 10
780.9072505766525
 20
699.4729667108461
 30
0.0
 11
780.9072505766525
 21
700.1422567108461
 31
0.0
  0
ARC
  5
B38
330
1F
100
AcDbEntity
  8
PIC06
  6
Continuous
 62
     7
100
AcDbCircle
 10
780.3954405766524
 20
700.1422567108461
 30
0.0
 40
0.1181099999999995
100
AcDbArc
 50
0.0
 51
90.0
  0
ARC
  5
B39
330
1F
100
AcDbEntity
  8
PIC06
  6
Continuous
 62
     7
100
AcDbCircle
 10
781.0253605766523
 20
700.1422567108461
 30
0.0
 40
0.1181099999999995
100
AcDbArc
 50
90.0
 51
180.0
  0
LINE
  5
B3A
330
1F
100
AcDbEntity
  8
PIC06
  6
Continuous
 62
     7
100
AcDbLine
 10
780.9072505766525
 20
699.4729667108461
 30
0.0
 11
786.2222005766524
 21
699.2467986257397
 31
0.0
  0
ARC
  5
B3B
330
1F
100
AcDbEntity
  8
PIC06
  6
Continuous
 62
     7
100
AcDbCircle
 10
818.1104475968966
 20
699.4605360310987
 30
0.0
 40
32.48024999999984
100
AcDbArc
 50
181.0933046783389
 51
187.920509780191
  0
LINE
  5
B3C
330
1F
100
AcDbEntity
  8
PIC06
  6
Continuous
 62
     7
100
AcDbLine
 10
785.7541991691361
 20
698.9611567108461
 30
0.0
 11
786.2235219273961
 21
698.9611567108461
 31
0.0
  0
ARC
  5
B3D
330
1F
100
AcDbEntity
  8
PIC06
  6
Continuous
 62
     7
100
AcDbCircle
 10
788.1466560647631
 20
695.3887049789281
 30
0.0
 40
2.24326734801663
100
AcDbArc
 50
144.7791657459336
 51
245.5630939530482
  0
ARC
  5
B3E
330
1F
100
AcDbEntity
  8
PIC06
  6
Continuous
 62
     7
100
AcDbCircle
 10
787.0883405766524
 20
693.0596503441535
 30
0.0
 40
0.3149599999999948
100
AcDbArc
 50
16.1688319518258
 51
65.56309395304825
  0
ARC
  5
B3F
330
1F
100
AcDbEntity
  8
PIC06
  6
Continuous
 62
     7
100
AcDbCircle
 10
787.6177188229371
 20
693.2131367108462
 30
0.0
 40
0.2362199999999988
100
AcDbArc
 50
196.1688319518258
 51
270.0
  0
ARC
  5
B40
330
1F
100
AcDbEntity
  8
PIC06
  6
Continuous
 62
     7
100
AcDbCircle
 10
786.2175636981292
 20
696.7505807517946
 30
0.0
 40
0.1181100000000002
100
AcDbArc
 50
324.7791657459337
 51
4.856786575796153
  0
ARC
  5
B41
330
1F
100
AcDbEntity
  8
PIC06
  6
Continuous
 62
     7
100
AcDbCircle
 10
788.5844005766523
 20
696.032777247168
 30
0.0
 40
2.086609999999991
100
AcDbArc
 50
186.6219754552623
 51
226.2278322848288
  0
ARC
  5
B42
330
1F
100
AcDbEntity
  8
PIC06
  6
Continuous
 62
     7
100
AcDbCircle
 10
788.1466560647631
 20
695.3887049789281
 30
0.0
 40
1.928307348016558
100
AcDbArc
 50
151.2912500161839
 51
245.5630939530482
  0
ARC
  5
B43
330
1F
100
AcDbEntity
  8
PIC06
  6
Continuous
 62
     7
100
AcDbCircle
 10
818.1104475968966
 20
699.4605360310987
 30
0.0
 40
31.81095999999985
100
AcDbArc
 50
185.6748361828147
 51
186.6219789405558
  0
ARC
  5
B44
330
1F
100
AcDbEntity
  8
PIC06
  6
Continuous
 62
     7
100
AcDbCircle
 10
787.0883405766524
 20
693.0596503441535
 30
0.0
 40
0.6299199999999922
100
AcDbArc
 50
21.63300554950878
 51
65.56309395304825
  0
LINE
  5
B45
330
1F
100
AcDbEntity
  8
PIC06
  6
Continuous
 62
     7
100
AcDbLine
 10
789.5861391184093
 20
694.1186467108462
 30
0.0
 11
789.5156284400445
 21
693.2918767108461
 31
0.0
  0
LINE
  5
B46
330
1F
100
AcDbEntity
  8
PIC06
  6
Continuous
 62
     7
100
AcDbLine
 10
788.5844005766523
 20
685.6934667108462
 30
0.0
 11
788.2677288375219
 21
692.9769167108462
 31
0.0
  0
LINE
  5
B47
330
1F
100
AcDbEntity
  8
PIC06
  6
Continuous
 62
     7
100
AcDbLine
 10
789.7577977505654
 20
685.6934667108462
 30
0.0
 11
789.441126011435
 21
692.9769167108462
 31
0.0
  0
LINE
  5
B48
330
1F
100
AcDbEntity
  8
PIC06
  6
Continuous
 62
     7
100
AcDbLine
 10
790.1215423157828
 20
685.6934667108462
 30
0.0
 11
789.7986640698587
 21
693.1196663670996
 31
0.0
  0
LINE
  5
B49
330
1F
100
AcDbEntity
  8
PIC06
  6
Continuous
 62
     7
100
AcDbLine
 10
788.5758418810001
 20
685.8903167108462
 30
0.0
 11
789.7492390549132
 21
685.8903167108462
 31
0.0
  0
LINE
  5
B4A
330
1F
100
AcDbEntity
  8
PIC06
  6
DASHED
 62
     7
100
AcDbLine
 10
792.7233073781553
 20
686.4808667108462
 30
0.0
 11
795.4606730752918
 21
686.4808667108462
 31
0.0
  0
ARC
  5
B4B
330
1F
100
AcDbEntity
  8
PIC06
  6
DASHED
 62
     7
100
AcDbCircle
 10
792.7233073781553
 20
686.3627567108462
 30
0.0
 40
0.1181099999999994
100
AcDbArc
 50
90.0
 51
160.7099537808034
  0
ARC
  5
B4C
330
1F
100
AcDbEntity
  8
PIC06
  6
DASHED
 62
     7
100
AcDbCircle
 10
795.4606730752918
 20
686.3627567108462
 30
0.0
 40
0.1181099999999995
100
AcDbArc
 50
14.0362434679666
 51
90.0
  0
ARC
  5
B4D
330
1F
100
AcDbEntity
  8
PIC06
  6
Continuous
 62
     7
100
AcDbCircle
 10
795.8419580780128
 20
685.8115767108462
 30
0.0
 40
0.1181100000000003
100
AcDbArc
 50
194.0362434679666
 51
270.0
  0
ARC
  5
B4E
330
1F
100
AcDbEntity
  8
PIC06
  6
Continuous
 62
     7
100
AcDbCircle
 10
792.2801237751493
 20
685.8115767108462
 30
0.0
 40
0.1181099999999994
100
AcDbArc
 50
270.0
 51
340.7099537808035
  0
LINE
  5
B4F
330
1F
100
AcDbEntity
  8
PIC06
  6
Continuous
 62
     7
100
AcDbLine
 10
789.8175612453107
 20
693.1997025639581
 30
0.0
 11
789.8737146118989
 21
694.1854800684613
 31
0.0
  0
ARC
  5
B50
330
1F
100
AcDbEntity
  8
PIC06
  6
Continuous
 62
     7
100
AcDbCircle
 10
789.5817235636366
 20
693.2131367108462
 30
0.0
 40
0.2362199999999988
100
AcDbArc
 50
270.0
 51
356.739753420958
  0
ARC
  5
B51
330
1F
100
AcDbEntity
  8
PIC06
  6
Continuous
 62
     7
100
AcDbCircle
 10
805.0130405724173
 20
691.6014468421305
 30
0.0
 40
9.055099999999956
100
AcDbArc
 50
91.36497922418859
 51
105.093876397535
  0
ARC
  5
B52
330
1F
100
AcDbEntity
  8
PIC06
  6
Continuous
 62
     7
100
AcDbCircle
 10
802.7576005766523
 20
699.9640325897031
 30
0.0
 40
0.3936999999999982
100
AcDbArc
 50
105.093876397535
 51
180.0
  0
LINE
  5
B53
330
1F
100
AcDbEntity
  8
PIC06
  6
Continuous
 62
     7
100
AcDbLine
 10
802.6788605766522
 20
699.844981283441
 30
0.0
 11
802.6788605766522
 21
699.9640325897031
 31
0.0
  0
ARC
  5
B54
330
1F
100
AcDbEntity
  8
PIC06
  6
Continuous
 62
     7
100
AcDbCircle
 10
802.7576005766523
 20
699.9640325897031
 30
0.0
 40
0.0787399999999997
100
AcDbArc
 50
105.093876397535
 51
180.0
  0
ARC
  5
B55
330
1F
100
AcDbEntity
  8
PIC06
  6
Continuous
 62
     7
100
AcDbCircle
 10
805.0130405724173
 20
691.6014468421305
 30
0.0
 40
8.740139999999957
100
AcDbArc
 50
91.36497922418859
 51
105.093876397535
  0
ARC
  5
B56
330
1F
100
AcDbEntity
  8
PIC06
  6
Continuous
 62
     7
100
AcDbCircle
 10
786.8525170535531
 20
698.3582955487397
 30
0.0
 40
0.1304222702893981
100
AcDbArc
 50
90.23619342645876
 51
115.3166672084998
  0
ARC
  5
B57
330
1F
100
AcDbEntity
  8
PIC06
  6
Continuous
 62
     7
100
AcDbCircle
 10
786.8690130001843
 20
698.3248014144415
 30
0.0
 40
0.1677546115196092
100
AcDbArc
 50
115.5177886388851
 51
136.7034732131243
  0
ARC
  5
B58
330
1F
100
AcDbEntity
  8
PIC06
  6
Continuous
 62
     7
100
AcDbCircle
 10
786.9175048023288
 20
698.2785786782677
 30
0.0
 40
0.2347463207705475
100
AcDbArc
 50
136.6089815530429
 51
153.5253821811046
  0
ARC
  5
B59
330
1F
100
AcDbEntity
  8
PIC06
  6
Continuous
 62
     7
100
AcDbCircle
 10
786.983682728569
 20
698.2447090195389
 30
0.0
 40
0.3090845106832991
100
AcDbArc
 50
153.3741908561531
 51
167.4461552253749
  0
ARC
  5
B5A
330
1F
100
AcDbEntity
  8
PIC06
  6
Continuous
 62
     7
100
AcDbCircle
 10
787.0316368856041
 20
698.2331872352765
 30
0.0
 40
0.3583974738956177
100
AcDbArc
 50
167.3145607370037
 51
180.0600338185473
  0
ARC
  5
B5B
330
1F
100
AcDbEntity
  8
PIC06
  6
Continuous
 62
     7
100
AcDbCircle
 10
787.0316368856041
 20
698.2324361864157
 30
0.0
 40
0.3583974738956177
100
AcDbArc
 50
179.9399661814527
 51
192.6854392629962
  0
ARC
  5
B5C
330
1F
100
AcDbEntity
  8
PIC06
  6
Continuous
 62
     7
100
AcDbCircle
 10
786.983682728569
 20
698.2209144021534
 30
0.0
 40
0.3090845106832999
100
AcDbArc
 50
192.553844774625
 51
206.6258091438468
  0
ARC
  5
B5D
330
1F
100
AcDbEntity
  8
PIC06
  6
Continuous
 62
     7
100
AcDbCircle
 10
786.9175048023288
 20
698.1870447434246
 30
0.0
 40
0.2347463207705474
100
AcDbArc
 50
206.4746178188954
 51
223.3910184469571
  0
ARC
  5
B5E
330
1F
100
AcDbEntity
  8
PIC06
  6
Continuous
 62
     7
100
AcDbCircle
 10
786.8690130001843
 20
698.1408220072509
 30
0.0
 40
0.1677546115196097
100
AcDbArc
 50
223.2965267868757
 51
244.4822113611149
  0
ARC
  5
B5F
330
1F
100
AcDbEntity
  8
PIC06
  6
Continuous
 62
     7
100
AcDbCircle
 10
786.8525170535531
 20
698.1073278729525
 30
0.0
 40
0.1304222702893986
100
AcDbArc
 50
244.6833327915001
 51
269.7638065735412
  0
ARC
  5
B60
330
1F
100
AcDbEntity
  8
PIC06
  6
Continuous
 62
     7
100
AcDbCircle
 10
786.8514417633337
 20
698.1073278729525
 30
0.0
 40
0.1304222702893981
100
AcDbArc
 50
270.2361934264588
 51
295.3166672084999
  0
ARC
  5
B61
330
1F
100
AcDbEntity
  8
PIC06
  6
Continuous
 62
     7
100
AcDbCircle
 10
786.8349458167026
 20
698.1408220072509
 30
0.0
 40
0.1677546115196092
100
AcDbArc
 50
295.5177886388852
 51
316.7034732131244
  0
ARC
  5
B62
330
1F
100
AcDbEntity
  8
PIC06
  6
Continuous
 62
     7
100
AcDbCircle
 10
786.7864540145581
 20
698.1870447434246
 30
0.0
 40
0.2347463207705475
100
AcDbArc
 50
316.608981553043
 51
333.5253821811046
  0
ARC
  5
B63
330
1F
100
AcDbEntity
  8
PIC06
  6
Continuous
 62
     7
100
AcDbCircle
 10
786.720276088318
 20
698.2209144021534
 30
0.0
 40
0.3090845106832991
100
AcDbArc
 50
333.3741908561532
 51
347.4461552253749
  0
ARC
  5
B64
330
1F
100
AcDbEntity
  8
PIC06
  6
Continuous
 62
     7
100
AcDbCircle
 10
786.6723219312827
 20
698.2324361864157
 30
0.0
 40
0.3583974738956177
100
AcDbArc
 50
347.3145607370038
 51
0.0600338185472618
  0
ARC
  5
B65
330
1F
100
AcDbEntity
  8
PIC06
  6
Continuous
 62
     7
100
AcDbCircle
 10
786.6723219312827
 20
698.2331872352765
 30
0.0
 40
0.3583974738956177
100
AcDbArc
 50
359.9399661814528
 51
12.68543926299623
  0
ARC
  5
B66
330
1F
100
AcDbEntity
  8
PIC06
  6
Continuous
 62
     7
100
AcDbCircle
 10
786.720276088318
 20
698.2447090195389
 30
0.0
 40
0.3090845106832999
100
AcDbArc
 50
12.55384477462509
 51
26.62580914384682
  0
ARC
  5
B67
330
1F
100
AcDbEntity
  8
PIC06
  6
Continuous
 62
     7
100
AcDbCircle
 10
786.7864540145581
 20
698.2785786782677
 30
0.0
 40
0.2347463207705474
100
AcDbArc
 50
26.4746178188954
 51
43.39101844695703
  0
ARC
  5
B68
330
1F
100
AcDbEntity
  8
PIC06
  6
Continuous
 62
     7
100
AcDbCircle
 10
786.8349458167026
 20
698.3248014144415
 30
0.0
 40
0.1677546115196097
100
AcDbArc
 50
43.29652678687566
 51
64.48221136111482
  0
ARC
  5
B69
330
1F
100
AcDbEntity
  8
PIC06
  6
Continuous
 62
     7
100
AcDbCircle
 10
786.8514417633337
 20
698.3582955487397
 30
0.0
 40
0.1304222702893986
100
AcDbArc
 50
64.68333279150013
 51
89.76380657354125
  0
LINE
  5
B6A
330
1F
100
AcDbEntity
  8
PIC06
  6
CENTER
 62
     7
100
AcDbLine
 10
788.5844005766523
 20
712.8240520214101
 30
0.0
 11
788.5844005766523
 21
715.9975734294911
 31
0.0
  0
LINE
  5
B6B
330
1F
100
AcDbEntity
  8
PIC06
  6
CENTER
 62
     7
100
AcDbLine
 10
785.0411005766524
 20
713.4699901134511
 30
0.0
 11
785.0411005766524
 21
715.4418975023672
 31
0.0
  0
CIRCLE
  5
B6C
330
1F
100
AcDbEntity
  8
PIC06
  6
DASHED
 62
     7
100
AcDbCircle
 10
794.0962005766523
 20
718.1584275023672
 30
0.0
 40
0.216534999999999
  0
LINE
  5
B6D
330
1F
100
AcDbEntity
  8
PIC06
  6
CENTER
 62
     7
100
AcDbLine
 10
794.4406343105542
 20
710.6781275023671
 30
0.0
 11
793.6717899221265
 21
710.6781275023671
 31
0.0
  0
LINE
  5
B6E
330
1F
100
AcDbEntity
  8
PIC06
  6
CENTER
 62
     7
100
AcDbLine
 10
794.5328933303296
 20
718.1584275023672
 30
0.0
 11
793.7102323818434
 21
718.1584275023672
 31
0.0
  0
ARC
  5
B6F
330
1F
100
AcDbEntity
  8
PIC06
  6
DASHED
 62
     7
100
AcDbCircle
 10
798.6237505766523
 20
714.4182775023671
 30
0.0
 40
3.346449999999983
100
AcDbArc
 50
0.0
 51
56.84659158430524
  0
LINE
  5
B70
330
1F
100
AcDbEntity
  8
PIC06
  6
DASHED
 62
     7
100
AcDbLine
 10
788.8993605766524
 20
719.1426775023671
 30
0.0
 11
793.9946354190331
 21
719.1426775023671
 31
0.0
  0
ARC
  5
B71
330
1F
100
AcDbEntity
  8
PIC06
  6
DASHED
 62
     7
100
AcDbCircle
 10
793.9946354190331
 20
707.3316775023671
 30
0.0
 40
11.81099999999994
100
AcDbArc
 50
56.84659158430524
 51
90.0
  0
LINE
  5
B72
330
1F
100
AcDbEntity
  8
PIC06
  6
DASHED
 62
     7
100
AcDbLine
 10
788.8993605766524
 20
718.1584275023672
 30
0.0
 11
789.7165778128004
 21
718.1584275023672
 31
0.0
  0
LINE
  5
B73
330
1F
100
AcDbEntity
  8
PIC06
  6
DASHED
 62
     7
100
AcDbLine
 10
790.2081233405042
 20
717.7647275023671
 30
0.0
 11
792.3377228783291
 21
717.7647275023671
 31
0.0
  0
LINE
  5
B74
330
1F
100
AcDbEntity
  8
PIC06
  6
DASHED
 62
     7
100
AcDbLine
 10
788.5844005766523
 20
718.8277175023671
 30
0.0
 11
788.5844005766523
 21
718.4733875023671
 31
0.0
  0
LINE
  5
B75
330
1F
100
AcDbEntity
  8
PIC06
  6
DASHED
 62
     7
100
AcDbLine
 10
789.8000941947263
 20
718.1238338842931
 30
0.0
 11
790.1246069585782
 21
717.7993211204412
 31
0.0
  0
ARC
  5
B76
330
1F
100
AcDbEntity
  8
PIC06
  6
DASHED
 62
     7
100
AcDbCircle
 10
798.6237505766523
 20
714.4182775023671
 30
0.0
 40
2.952749999999983
100
AcDbArc
 50
0.0
 51
56.84659158430524
  0
ARC
  5
B77
330
1F
100
AcDbEntity
  8
PIC06
  6
DASHED
 62
     7
100
AcDbCircle
 10
793.9946354190331
 20
707.3316775023671
 30
0.0
 40
11.41729999999995
100
AcDbArc
 50
56.84659158430524
 51
72.63274205575251
  0
ARC
  5
B78
330
1F
100
AcDbEntity
  8
PIC06
  6
DASHED
 62
     7
100
AcDbCircle
 10
794.0962005766523
 20
719.103307502367
 30
0.0
 40
2.16534999999999
100
AcDbArc
 50
219.6377143906692
 51
309.1129761510484
  0
ARC
  5
B79
330
1F
100
AcDbEntity
  8
PIC06
  6
DASHED
 62
     7
100
AcDbCircle
 10
793.9946354190331
 20
707.3316775023671
 30
0.0
 40
10.23619999999995
100
AcDbArc
 50
76.32636306114321
 51
81.23343413641643
  0
ARC
  5
B7A
330
1F
100
AcDbEntity
  8
PIC06
  6
DASHED
 62
     7
100
AcDbCircle
 10
795.5367248514829
 20
717.3315627732303
 30
0.0
 40
0.1181099999999994
100
AcDbArc
 50
81.23343413641643
 51
129.1129761510483
  0
ARC
  5
B7B
330
1F
100
AcDbEntity
  8
PIC06
  6
DASHED
 62
     7
100
AcDbCircle
 10
792.3377228783291
 20
717.6466175023671
 30
0.0
 40
0.1181099999999995
100
AcDbArc
 50
39.63771439066923
 51
90.0
  0
ARC
  5
B7C
330
1F
100
AcDbEntity
  8
PIC06
  6
DASHED
 62
     7
100
AcDbCircle
 10
788.8993605766524
 20
718.4733875023671
 30
0.0
 40
0.3149599999999986
100
AcDbArc
 50
180.0
 51
270.0
  0
ARC
  5
B7D
330
1F
100
AcDbEntity
  8
PIC06
  6
DASHED
 62
     7
100
AcDbCircle
 10
788.8993605766524
 20
718.8277175023671
 30
0.0
 40
0.3149599999999986
100
AcDbArc
 50
90.0
 51
180.0
  0
ARC
  5
B7E
330
1F
100
AcDbEntity
  8
PIC06
  6
DASHED
 62
     7
100
AcDbCircle
 10
789.7165778128004
 20
718.0403175023671
 30
0.0
 40
0.1181099999999995
100
AcDbArc
 50
45.0
 51
90.0
  0
ARC
  5
B7F
330
1F
100
AcDbEntity
  8
PIC06
  6
DASHED
 62
     7
100
AcDbCircle
 10
790.2081233405042
 20
717.882837502367
 30
0.0
 40
0.1181100000000005
100
AcDbArc
 50
225.0
 51
270.0
  0
LINE
  5
B80
330
1F
100
AcDbEntity
  8
PIC06
  6
CENTER
 62
     7
100
AcDbLine
 10
794.0962005766523
 20
710.2852661333486
 30
0.0
 11
794.0962005766523
 21
718.5349439775868
 31
0.0
  0
LINE
  5
B81
330
1F
100
AcDbEntity
  8
PIC06
  6
CENTER
 62
     7
100
AcDbLine
 10
788.5844005766523
 20
692.6257604124758
 30
0.0
 11
788.5844005766523
 21
695.2994343268129
 31
0.0
  0
LINE
  5
B82
330
1F
100
AcDbEntity
  8
PIC06
  6
CENTER
 62
     7
100
AcDbLine
 10
785.0411005766524
 20
698.7540097521518
 30
0.0
 11
785.0411005766524
 21
701.0524721455309
 31
0.0
  0
LINE
  5
B83
330
1F
100
AcDbEntity
  8
PIC06
  6
CENTER
 62
     7
100
AcDbLine
 10
794.0962005766523
 20
685.3628238309023
 30
0.0
 11
794.0962005766523
 21
694.901700367615
 31
0.0
  0
LINE
  5
B84
330
1F
100
AcDbEntity
  8
PIC06
  6
DASHED
 62
     7
100
AcDbLine
 10
792.6395105766523
 20
686.8745667108462
 30
0.0
 11
795.5528905766523
 21
686.8745667108462
 31
0.0
  0
ARC
  5
B85
330
1F
100
AcDbEntity
  8
PIC06
  6
DASHED
 62
     7
100
AcDbCircle
 10
794.0962005766523
 20
689.6304667108462
 30
0.0
 40
0.9842499999999951
100
AcDbArc
 50
34.32839648443421
 51
145.6716035155658
  0
ARC
  5
B86
330
1F
100
AcDbEntity
  8
PIC06
  6
DASHED
 62
     7
100
AcDbCircle
 10
792.6395105766523
 20
687.1895267108462
 30
0.0
 40
0.3149599999999991
100
AcDbArc
 50
178.7617194708927
 51
270.0
  0
ARC
  5
B87
330
1F
100
AcDbEntity
  8
PIC06
  6
DASHED
 62
     7
100
AcDbCircle
 10
795.5528905766523
 20
687.1895267108462
 30
0.0
 40
0.3149599999999986
100
AcDbArc
 50
270.0
 51
1.238280529107276
  0
ARC
  5
B88
330
1F
100
AcDbEntity
  8
PIC06
  6
DASHED
 62
     7
100
AcDbCircle
 10
797.8351369495417
 20
687.0772209721864
 30
0.0
 40
5.511799999999968
100
AcDbArc
 50
145.6716035155658
 51
178.7617194708927
  0
ARC
  5
B89
330
1F
100
AcDbEntity
  8
PIC06
  6
DASHED
 62
     7
100
AcDbCircle
 10
790.3572642037629
 20
687.0772209721864
 30
0.0
 40
5.511799999999968
100
AcDbArc
 50
1.238280529107276
 51
34.32839648443421
  0
LINE
  5
B8A
330
1F
100
AcDbEntity
  8
PIC06
  6
DASHED
 62
     7
100
AcDbLine
 10
794.3127355766523
 20
686.4808667108462
 30
0.0
 11
794.3127355766523
 21
686.8745667108462
 31
0.0
  0
LINE
  5
B8B
330
1F
100
AcDbEntity
  8
PIC06
  6
DASHED
 62
     7
100
AcDbLine
 10
793.8796655766523
 20
686.4808667108462
 30
0.0
 11
793.8796655766523
 21
686.8745667108462
 31
0.0
  0
ARC
  5
B8C
330
1F
100
AcDbEntity
  8
PIC06
  6
Continuous
 62
     7
100
AcDbCircle
 10
777.6633416669626
 20
891.2246325956926
 30
0.0
 40
196.849999999999
100
AcDbArc
 50
273.6038813149639
 51
276.602491705708
  0
ARC
  5
B8D
330
1F
100
AcDbEntity
  8
PIC06
  6
Continuous
 62
     7
100
AcDbCircle
 10
777.6633416669626
 20
891.2246325956926
 30
0.0
 40
197.2436999999991
100
AcDbArc
 50
273.6027650859713
 51
276.2389016483287
  0
ARC
  5
B8E
330
1F
100
AcDbEntity
  8
PIC06
  6
Continuous
 62
     7
100
AcDbCircle
 10
777.6633416669626
 20
891.2246325956926
 30
0.0
 40
197.1649599999991
100
AcDbArc
 50
276.3509427333407
 51
276.602491705708
  0
ARC
  5
B8F
330
1F
100
AcDbEntity
  8
PIC06
  6
Continuous
 62
     7
100
AcDbCircle
 10
799.8445460510602
 20
699.5910767108462
 30
0.0
 40
4.251959999999948
100
AcDbArc
 50
276.602491705708
 51
282.1453109528205
  0
LWPOLYLINE
  5
B90
330
1F
100
AcDbEntity
  8
PIC06
  6
Continuous
 62
     7
100
AcDbPolyline
 90
        8
 70
     0
 43
0.0
 10
802.6788605766522
 20
699.844981283441
 42
0.3601615323726448
 10
802.7108724610668
 20
699.8063049982648
 10
804.3520205942035
 20
699.4940785886852
 42
-0.1602328648289212
 10
804.5887599801087
 20
699.362969021392
 42
0.0482067530900032
 10
804.8048405766522
 20
700.3391067108461
 42
0.0599753711554218
 10
802.7370965766909
 20
700.0400560964992
 42
0.3389975099070169
 10
802.6788605766522
 20
699.9640325897031
 10
802.6788605766522
 20
699.844981283441
  0
LWPOLYLINE
  5
B91
330
1F
100
AcDbEntity
  8
PIC06
  6
Continuous
 62
     7
100
AcDbPolyline
 90
        8
 70
     0
 43
0.0
 10
804.8048405766522
 20
700.3391067108461
 42
0.0599753711554218
 10
802.7370965766909
 20
700.0400560964992
 42
0.3389975099070169
 10
802.6788605766522
 20
699.9640325897031
 10
802.6788605766522
 20
699.844981283441
 42
0.3601615323726448
 10
802.7108724610668
 20
699.8063049982648
 10
804.3520205942035
 20
699.4940785886852
 42
-0.1602328648289212
 10
804.5887599801087
 20
699.362969021392
 42
0.0482067530900032
 10
804.8048405766522
 20
700.3391067108461
  0
LINE
  5
B92
330
1F
100
AcDbEntity
  8
PIC06
  6
Continuous
 62
     7
100
AcDbLine
 10
789.4308555766523
 20
692.9769167108462
 30
0.0
 11
789.4308555766523
 21
693.2918767108461
 31
0.0
  0
LINE
  5
B93
330
1F
100
AcDbEntity
  8
PIC06
  6
Continuous
 62
     7
100
AcDbLine
 10
789.4308555766523
 20
694.1186467108462
 30
0.0
 11
789.4308555766523
 21
694.3548667108461
 31
0.0
  0
LINE
  5
B94
330
1F
100
AcDbEntity
  8
PIC06
  6
Continuous
 62
     7
100
AcDbLine
 10
787.7379455766523
 20
692.9769167108462
 30
0.0
 11
787.7379455766523
 21
693.2918767108461
 31
0.0
  0
LINE
  5
B95
330
1F
100
AcDbEntity
  8
PIC06
  6
Continuous
 62
     7
100
AcDbLine
 10
787.7379455766523
 20
694.1186467108462
 30
0.0
 11
787.7379455766523
 21
694.3548667108461
 31
0.0
  0
LINE
  5
B96
330
1F
100
AcDbEntity
  8
PIC06
  6
Continuous
 62
     7
100
AcDbLine
 10
789.4308555766523
 20
694.3548667108461
 30
0.0
 11
789.6459365048445
 21
694.5812676878905
 31
0.0
  0
ARC
  5
B97
330
1F
100
AcDbEntity
  8
PIC06
  6
Continuous
 62
     7
100
AcDbCircle
 10
790.0740849203537
 20
694.1745266931568
 30
0.0
 40
0.5905499999999965
100
AcDbArc
 50
93.60388131496396
 51
136.4688007144518
  0
ARC
  5
B98
330
1F
100
AcDbEntity
  8
PIC06
  6
Continuous
 62
     7
100
AcDbCircle
 10
790.0702460132939
 20
694.1742849460547
 30
0.0
 40
0.1968499999999989
100
AcDbArc
 50
93.60276508597127
 51
176.739753420958
  0
LINE
  5
B99
330
1F
100
AcDbEntity
  8
PIC06
  6
Continuous
 62
     7
100
AcDbLine
 10
787.7379455766523
 20
694.3548667108461
 30
0.0
 11
787.3639305766523
 21
694.7485667108461
 31
0.0
  0
LINE
  5
B9A
330
1F
100
AcDbEntity
  8
PIC06
  6
Continuous
 62
     7
100
AcDbLine
 10
787.527926651049
 20
694.1186467108462
 30
0.0
 11
787.140899456692
 21
694.5260437575378
 31
0.0
  0
CIRCLE
  5
B9B
330
1F
100
AcDbEntity
  8
PIC06
  6
Continuous
 62
     7
100
AcDbCircle
 10
788.5844005766523
 20
714.4182775023671
 30
0.0
 40
0.8464549999999961
  0
ARC
  5
B9C
330
1F
100
AcDbEntity
  8
PIC06
  6
DASHED
 62
     7
100
AcDbCircle
 10
793.9946354190331
 20
707.3316775023671
 30
0.0
 40
11.41729999999995
100
AcDbArc
 50
72.63274205575251
 51
90.0
  0
LINE
  5
B9D
330
1F
100
AcDbEntity
  8
PIC06
  6
DASHED
 62
     7
100
AcDbLine
 10
788.5844005766523
 20
718.7489775023671
 30
0.0
 11
793.9946354190331
 21
718.7489775023671
 31
0.0
  0
LINE
  5
B9E
330
1F
100
AcDbEntity
  8
PIC06
  6
DASHED
 62
     7
100
AcDbLine
 10
789.7165778128004
 20
718.1584275023672
 30
0.0
 11
792.4328180766523
 21
718.1584275023672
 31
0.0
  0
ARC
  5
B9F
330
1F
100
AcDbEntity
  8
PIC06
  6
DASHED
 62
     7
100
AcDbCircle
 10
793.9946354190331
 20
707.3316775023671
 30
0.0
 40
10.62989999999994
100
AcDbArc
 50
74.69062590789438
 51
80.76520733976298
  0
LINE
  5
BA0
330
1F
100
AcDbEntity
  8
PIC06
  6
DASHED
 62
     7
100
AcDbLine
 10
792.6395105766523
 20
718.0599861770883
 30
0.0
 11
792.6395105766523
 21
718.7489775023671
 31
0.0
  0
LINE
  5
BA1
330
1F
100
AcDbEntity
  8
PIC06
  6
DASHED
 62
     7
100
AcDbLine
 10
792.3639205766524
 20
717.7647275023671
 30
0.0
 11
792.3639205766524
 21
718.1584275023672
 31
0.0
  0
LINE
  5
BA2
330
1F
100
AcDbEntity
  8
PIC06
  6
DASHED
 62
     7
100
AcDbLine
 10
792.4328180766523
 20
718.1584275023672
 30
0.0
 11
792.4328180766523
 21
718.7489775023671
 31
0.0
  0
LINE
  5
BA3
330
1F
100
AcDbEntity
  8
PIC06
  6
DASHED
 62
     7
100
AcDbLine
 10
795.7497405766523
 20
717.4162893603266
 30
0.0
 11
795.7497405766523
 21
717.8156834111645
 31
0.0
  0
LINE
  5
BA4
330
1F
100
AcDbEntity
  8
PIC06
  6
DASHED
 62
     7
100
AcDbLine
 10
795.5528905766523
 20
717.8431174090511
 30
0.0
 11
795.5528905766523
 21
718.642140806483
 31
0.0
  0
LINE
  5
BA5
330
1F
100
AcDbEntity
  8
PIC06
  6
DASHED
 62
     7
100
AcDbLine
 10
795.7005280766524
 20
717.8238033237001
 30
0.0
 11
795.7005280766524
 21
718.6208169527717
 31
0.0
  0
ARC
  5
BA6
330
1F
100
AcDbEntity
  8
PIC06
  6
Continuous
 62
     7
100
AcDbCircle
 10
785.7541991691361
 20
698.8430467108461
 30
0.0
 40
0.1181099999999995
100
AcDbArc
 50
90.0
 51
181.0933046783389
  0
ARC
  5
BA7
330
1F
100
AcDbEntity
  8
PIC06
  6
Continuous
 62
     7
100
AcDbCircle
 10
724.0916592823359
 20
674.0779423632586
 30
0.0
 40
78.42503999999961
100
AcDbArc
 50
8.89479522678072
 51
13.94373881164683
  0
ARC
  5
BA8
330
1F
100
AcDbEntity
  8
PIC06
  6
Continuous
 62
     7
100
AcDbCircle
 10
801.9702005766523
 20
694.0005367108462
 30
0.0
 40
1.889759999999991
100
AcDbArc
 50
130.6507375569425
 51
180.0
  0
ARC
  5
BA9
330
1F
100
AcDbEntity
  8
PIC06
  6
Continuous
 62
     7
100
AcDbCircle
 10
804.3324005766523
 20
694.0005367108462
 30
0.0
 40
4.251959999999976
100
AcDbArc
 50
180.0
 51
193.943742675416
  0
LINE
  5
BAA
330
1F
100
AcDbEntity
  8
PIC06
  6
Continuous
 62
     7
100
AcDbLine
 10
800.2006614948211
 20
687.2546004089098
 30
0.0
 11
799.2287040830777
 21
695.0463361729267
 31
0.0
  0
ARC
  5
BAB
330
1F
100
AcDbEntity
  8
PIC06
  6
Continuous
 62
     7
100
AcDbCircle
 10
801.763350248558
 20
687.4495334716372
 30
0.0
 40
1.574799999999992
100
AcDbArc
 50
187.1104661301936
 51
261.9329904155086
  0
ARC
  5
BAC
330
1F
100
AcDbEntity
  8
PIC06
  6
Continuous
 62
     7
100
AcDbCircle
 10
799.1115024265475
 20
695.0317161932221
 30
0.0
 40
0.1181099999999997
100
AcDbArc
 50
7.110466130193647
 51
96.23890164832872
  0
ARC
  5
BAD
330
1F
100
AcDbEntity
  8
PIC06
  6
Continuous
 62
     7
100
AcDbCircle
 10
799.1115024265475
 20
695.0317161932221
 30
0.0
 40
0.4330699999999977
100
AcDbArc
 50
7.110466130193647
 51
33.33060000490448
  0
LINE
  5
BAE
330
1F
100
AcDbEntity
  8
PIC06
  6
Continuous
 62
     7
100
AcDbLine
 10
800.5131992455686
 20
687.2935870214553
 30
0.0
 11
799.5412418338251
 21
695.0853227854722
 31
0.0
  0
ARC
  5
BAF
330
1F
100
AcDbEntity
  8
PIC06
  6
Continuous
 62
     7
100
AcDbCircle
 10
801.763350248558
 20
687.4495334716372
 30
0.0
 40
1.259840000000316
100
AcDbArc
 50
187.1104661301936
 51
261.3353011622314
  0
ARC
  5
BB0
330
1F
100
AcDbEntity
  8
PIC06
  6
Continuous
 62
     7
100
AcDbCircle
 10
697.1281165969718
 20
686.2699353269498
 30
0.0
 40
98.42499999999958
100
AcDbArc
 50
0.1227887967608957
 51
4.3163722703969
  0
ARC
  5
BB1
330
1F
100
AcDbEntity
  8
PIC06
  6
Continuous
 62
     7
100
AcDbCircle
 10
891.0642845563328
 20
686.2699353269498
 30
0.0
 40
98.42499999999958
100
AcDbArc
 50
175.6836277296031
 51
179.8772112032391
  0
ARC
  5
BB2
330
1F
100
AcDbEntity
  8
PIC06
  6
Continuous
 62
     7
100
AcDbCircle
 10
794.0962005766523
 20
693.5888680715196
 30
0.0
 40
1.1811
100
AcDbArc
 50
4.3163722703969
 51
70.2430144271975
  0
ARC
  5
BB3
330
1F
100
AcDbEntity
  8
PIC06
  6
DASHED
 62
     7
100
AcDbCircle
 10
794.0962005766523
 20
693.5888680715196
 30
0.0
 40
1.181099999997071
100
AcDbArc
 50
70.2430144271975
 51
90.0
  0
ARC
  5
BB4
330
1F
100
AcDbEntity
  8
PIC06
  6
Continuous
 62
     7
100
AcDbCircle
 10
794.0962005766523
 20
693.5888680715196
 30
0.0
 40
1.1811
100
AcDbArc
 50
119.2630855368234
 51
175.6836277296031
  0
ARC
  5
BB5
330
1F
100
AcDbEntity
  8
PIC06
  6
DASHED
 62
     7
100
AcDbCircle
 10
794.0962005766523
 20
693.5888680715196
 30
0.0
 40
1.18109999999707
100
AcDbArc
 50
90.0
 51
119.2630855368234
  0
LINE
  5
BB6
330
1F
100
AcDbEntity
  8
PIC06
  6
Continuous
 62
     7
100
AcDbLine
 10
792.6544098781554
 20
686.2840167108462
 30
0.0
 11
795.5098855752919
 21
686.2840167108462
 31
0.0
  0
ARC
  5
BB7
330
1F
100
AcDbEntity
  8
PIC06
  6
Continuous
 62
     7
100
AcDbCircle
 10
795.5098855752919
 20
686.1659067108462
 30
0.0
 40
0.1181099999999995
100
AcDbArc
 50
14.0362434679666
 51
90.0
  0
ARC
  5
BB8
330
1F
100
AcDbEntity
  8
PIC06
  6
Continuous
 62
     7
100
AcDbCircle
 10
792.6544098781554
 20
686.1659067108462
 30
0.0
 40
0.1181099999999995
100
AcDbArc
 50
90.0
 51
160.7099537808034
  0
LINE
  5
BB9
330
1F
100
AcDbEntity
  8
PIC06
  6
DASHED
 62
     7
100
AcDbLine
 10
795.5752566059841
 20
686.3914025935192
 30
0.0
 11
795.6244691059841
 21
686.1945525935192
 31
0.0
  0
LINE
  5
BBA
330
1F
100
AcDbEntity
  8
PIC06
  6
Continuous
 62
     7
100
AcDbLine
 10
795.6244691059841
 20
686.1945525935192
 30
0.0
 11
795.7273745473205
 21
685.7829308281732
 31
0.0
  0
LINE
  5
BBB
330
1F
100
AcDbEntity
  8
PIC06
  6
DASHED
 62
     7
100
AcDbLine
 10
792.611828267685
 20
686.4017743995108
 30
0.0
 11
792.542930767685
 21
686.2049243995109
 31
0.0
  0
LINE
  5
BBC
330
1F
100
AcDbEntity
  8
PIC06
  6
Continuous
 62
     7
100
AcDbLine
 10
792.542930767685
 20
686.2049243995109
 30
0.0
 11
792.3916028856197
 21
685.7725590221815
 31
0.0
  0
LINE
  5
BBD
330
1F
100
AcDbEntity
  8
PIC06
  6
DASHED
 62
     7
100
AcDbLine
 10
795.6021030766524
 20
717.4408732255544
 30
0.0
 11
795.6021030766524
 21
717.8391799161378
 31
0.0
  0
ARC
  5
BBE
330
1F
100
AcDbEntity
  8
PIC06
  6
DASHED
 62
     7
100
AcDbCircle
 10
794.0962005766523
 20
719.103307502367
 30
0.0
 40
1.771649999999992
100
AcDbArc
 50
219.6377143906692
 51
309.1129761510484
  0
ARC
  5
BBF
330
1F
100
AcDbEntity
  8
PIC06
  6
DASHED
 62
     7
100
AcDbCircle
 10
795.5367248514829
 20
717.3315627732303
 30
0.0
 40
0.5118099999999965
100
AcDbArc
 50
82.66102836300108
 51
129.1129761510483
  0
ARC
  5
BC0
330
1F
100
AcDbEntity
  8
PIC06
  6
DASHED
 62
     7
100
AcDbCircle
 10
792.3377228783291
 20
717.6466175023671
 30
0.0
 40
0.5118099999999965
100
AcDbArc
 50
39.63771439066923
 51
60.42950366531122
  0
LINE
  5
BC1
330
1F
100
AcDbEntity
  8
PIC06
  6
DASHED
 62
     7
100
AcDbLine
 10
792.5902980766523
 20
717.5473517565332
 30
0.0
 11
792.5902980766523
 21
718.0917638213364
 31
0.0
  0
LINE
  5
BC2
330
1F
100
AcDbEntity
  8
PIC06
  6
Continuous
 62
     7
100
AcDbLine
 10
799.2143005766523
 20
685.6934667108462
 30
0.0
 11
799.2143005766523
 21
685.8903167108462
 31
0.0
  0
LINE
  5
BC3
330
1F
100
AcDbEntity
  8
PIC06
  6
Continuous
 62
     7
100
AcDbLine
 10
799.2143005766523
 20
685.8903167108462
 30
0.0
 11
801.5423567353762
 21
685.8903167108462
 31
0.0
  0
ARC
  5
BC4
330
1F
100
AcDbEntity
  8
PIC06
  6
DASHED
 62
     7
100
AcDbCircle
 10
798.6237505766523
 20
714.4182775023671
 30
0.0
 40
1.771649999999991
100
AcDbArc
 50
0.0
 51
56.84659158430524
  0
ARC
  5
BC5
330
1F
100
AcDbEntity
  8
PIC06
  6
DASHED
 62
     7
100
AcDbCircle
 10
793.9946354190331
 20
707.3316775023671
 30
0.0
 40
10.23619999999995
100
AcDbArc
 50
56.84659158430524
 51
72.63274205575251
  0
ARC
  5
BC6
330
1F
100
AcDbEntity
  8
PIC06
  6
DASHED
 62
     7
100
AcDbCircle
 10
793.9946354190331
 20
707.3316775023671
 30
0.0
 40
10.23619999999995
100
AcDbArc
 50
60.48188532029506
 51
72.63274205575251
  0
ARC
  5
BC7
330
1F
100
AcDbEntity
  8
PIC06
  6
DASHED
 62
     7
100
AcDbCircle
 10
793.9946354190331
 20
707.3316775023671
 30
0.0
 40
10.23619999999995
100
AcDbArc
 50
72.63274205575251
 51
76.32636306114321
  0
LINE
  5
BC8
330
1F
100
AcDbEntity
  8
PIC06
  6
DASHED
 62
     7
100
AcDbLine
 10
799.2143005766523
 20
716.341997726969
 30
0.0
 11
799.2143005766523
 21
716.522535132527
 31
0.0
  0
ARC
  5
BC9
330
1F
100
AcDbEntity
  8
PIC06
  6
DASHED
 62
     7
100
AcDbCircle
 10
793.9946354190331
 20
707.3316775023671
 30
0.0
 40
10.62989999999994
100
AcDbArc
 50
60.9667267906642
 51
74.69062590789438
  0
ARC
  5
BCA
330
1F
100
AcDbEntity
  8
PIC06
  6
DASHED
 62
     7
100
AcDbCircle
 10
799.0961905766523
 20
716.341997726969
 30
0.0
 40
0.1181099999999995
100
AcDbArc
 50
240.4818853202951
 51
0.0
  0
ARC
  5
BCB
330
1F
100
AcDbEntity
  8
PIC06
  6
DASHED
 62
     7
100
AcDbCircle
 10
799.0961905766523
 20
716.522535132527
 30
0.0
 40
0.1181099999999995
100
AcDbArc
 50
0.0
 51
60.9667267906642
  0
CIRCLE
  5
BCC
330
1F
100
AcDbEntity
  8
PIC06
  6
Continuous
 62
     7
100
AcDbCircle
 10
785.0411005766524
 20
714.4182775023671
 30
0.0
 40
0.6889749999999962
  0
LINE
  5
BCD
330
1F
100
AcDbEntity
  8
PIC06
  6
Continuous
 62
     7
100
AcDbLine
 10
785.7300755766524
 20
700.2603667108461
 30
0.0
 11
785.7300755766524
 21
700.6540667108461
 31
0.0
  0
LINE
  5
BCE
330
1F
100
AcDbEntity
  8
PIC06
  6
Continuous
 62
     7
100
AcDbLine
 10
784.3521255766524
 20
700.2603667108461
 30
0.0
 11
784.3521255766524
 21
700.6540667108461
 31
0.0
  0
LWPOLYLINE
  5
BCF
330
1F
100
AcDbEntity
  8
PIC06
  6
Continuous
 62
     7
100
AcDbPolyline
 90
       11
 70
     0
 43
0.0
 10
780.3167005766525
 20
700.6540667108461
 10
784.3521255766524
 20
700.6540667108461
 10
784.3521255766524
 20
700.2603667108461
 10
781.0253605766523
 20
700.2603667108461
 42
0.4142135623730688
 10
780.9072505766525
 20
700.1422567108461
 10
780.9072505766525
 20
699.4729667108461
 10
780.5135505766523
 20
699.4729667108461
 10
780.5135505766523
 20
700.1422567108461
 42
0.4142135623730688
 10
780.3954405766524
 20
700.2603667108461
 10
780.3167005766525
 20
700.2603667108461
 10
780.3167005766525
 20
700.6540667108461
  0
LWPOLYLINE
  5
BD0
330
1F
100
AcDbEntity
  8
PIC06
  6
Continuous
 62
     7
100
AcDbPolyline
 90
        8
 70
     0
 43
0.0
 10
804.5887599801087
 20
699.362969021392
 42
0.0482067530900032
 10
804.8048405766522
 20
700.3391067108461
 42
0.0599753711554218
 10
802.7370965766909
 20
700.0400560964992
 42
0.3389975099070169
 10
802.6788605766522
 20
699.9640325897031
 10
802.6788605766522
 20
699.844981283441
 42
0.3601615323726448
 10
802.7108724610668
 20
699.8063049982648
 10
804.3520205942035
 20
699.4940785886852
 42
-0.1602328648289212
 10
804.5887599801087
 20
699.362969021392
  0
LWPOLYLINE
  5
BD1
330
1F
100
AcDbEntity
  8
PIC06
  6
Continuous
 62
     7
100
AcDbPolyline
 90
       34
 70
     0
 43
0.0
 10
802.3639005766522
 20
699.8123952198194
 10
802.3639005766522
 20
699.9640325897031
 42
-0.3389975099070343
 10
802.6550805768447
 20
700.3441501236835
 42
-0.0599753711554216
 10
804.7973378741023
 20
700.6539773367458
 42
-0.45745073406484
 10
805.1174782592575
 20
700.3009297411491
 42
-0.1615609826812202
 10
803.6330358235971
 20
697.1629753813541
 42
-0.0857797321533648
 10
801.262199689166
 20
695.4072100145378
 42
0.2833634535076477
 10
800.3954005766523
 20
694.0005367108462
 42
0.0609162366929173
 10
800.5114129599459
 20
693.0518414842453
 42
-0.0238310987079639
 10
801.9702005766523
 20
685.6934667108462
 10
801.5721233866541
 20
685.6934667108462
 42
0.0006352818844091
 10
801.5423567353762
 20
685.8903167108462
 42
-0.3385908701250218
 10
800.2006614948211
 20
687.2546004089098
 10
799.2287040830777
 20
695.0463361729267
 42
0.4097651532048289
 10
799.0986669024544
 20
695.1491266758089
 42
-0.0115028229277531
 10
790.0578762183324
 20
694.3707459108101
 42
0.3795497850451283
 10
789.8737146118989
 20
694.1854800684613
 10
789.8175612453107
 20
693.1997025639581
 42
-0.3976438591076521
 10
789.5817235636366
 20
692.9769167108462
 10
789.4308555766523
 20
692.9769167108462
 10
789.4308555766523
 20
693.2918767108461
 10
789.5156284400445
 20
693.2918767108461
 10
789.5861391184093
 20
694.1186467108462
 10
789.4308555766523
 20
694.1186467108462
 10
789.4308555766523
 20
694.3548667108461
 10
789.6459365048445
 20
694.5812676878905
 42
-0.1892453549549905
 10
790.0369640531949
 20
694.7639088643509
 42
0.0130846527322151
 10
800.2972236915521
 20
695.680187815237
 42
0.1239994937260868
 10
802.0957743471477
 20
696.3612252964781
 42
0.0500074908384106
 10
803.3482701762244
 20
697.4348360369783
 42
0.0933542208621703
 10
804.3803276812464
 20
699.0237484141303
 42
0.474657421507177
 10
804.2931556695201
 20
699.1846683072755
 10
802.6199956519688
 20
699.5029849384097
 42
-0.3601615323727201
 10
802.3639005766522
 20
699.8123952198194
  0
LWPOLYLINE
  5
BD2
330
1F
100
AcDbEntity
  8
PIC06
  6
Continuous
 62
     7
100
AcDbPolyline
 90
        8
 70
     0
 43
0.0
 10
802.7108724610668
 20
699.8063049982648
 10
804.3520205942035
 20
699.4940785886852
 42
-0.1602328648289212
 10
804.5887599801087
 20
699.362969021392
 42
0.0482067530900032
 10
804.8048405766522
 20
700.3391067108461
 42
0.0599753711554218
 10
802.7370965766909
 20
700.0400560964992
 42
0.3389975099070169
 10
802.6788605766522
 20
699.9640325897031
 10
802.6788605766522
 20
699.844981283441
 42
0.3601615323726448
 10
802.7108724610668
 20
699.8063049982648
  0
LWPOLYLINE
  5
BD3
330
1F
100
AcDbEntity
  8
PIC06
  6
Continuous
 62
     7
100
AcDbPolyline
 90
       34
 70
     0
 43
0.0
 10
805.1174782592575
 20
700.3009297411491
 42
-0.1615609826812202
 10
803.6330358235971
 20
697.1629753813541
 42
-0.0857797321533648
 10
801.262199689166
 20
695.4072100145378
 42
0.2833634535076477
 10
800.3954005766523
 20
694.0005367108462
 42
0.0609162366929173
 10
800.5114129599459
 20
693.0518414842453
 42
-0.0238310987079639
 10
801.9702005766523
 20
685.6934667108462
 10
801.5721233866541
 20
685.6934667108462
 42
0.0006352818844091
 10
801.5423567353762
 20
685.8903167108462
 42
-0.3385908701250218
 10
800.2006614948211
 20
687.2546004089098
 10
799.2287040830777
 20
695.0463361729267
 42
0.4097651532048289
 10
799.0986669024544
 20
695.1491266758089
 42
-0.0115028229277531
 10
790.0578762183324
 20
694.3707459108101
 42
0.3795497850451283
 10
789.8737146118989
 20
694.1854800684613
 10
789.8175612453107
 20
693.1997025639581
 42
-0.3976438591076521
 10
789.5817235636366
 20
692.9769167108462
 10
789.4308555766523
 20
692.9769167108462
 10
789.4308555766523
 20
693.2918767108461
 10
789.5156284400445
 20
693.2918767108461
 10
789.5861391184093
 20
694.1186467108462
 10
789.4308555766523
 20
694.1186467108462
 10
789.4308555766523
 20
694.3548667108461
 10
789.6459365048445
 20
694.5812676878905
 42
-0.1892453549549905
 10
790.0369640531949
 20
694.7639088643509
 42
0.0130846527322151
 10
800.2972236915521
 20
695.680187815237
 42
0.1239994937260868
 10
802.0957743471477
 20
696.3612252964781
 42
0.0500074908384106
 10
803.3482701762244
 20
697.4348360369783
 42
0.0933542208621703
 10
804.3803276812464
 20
699.0237484141303
 42
0.474657421507177
 10
804.2931556695201
 20
699.1846683072755
 10
802.6199956519688
 20
699.5029849384097
 42
-0.3601615323727201
 10
802.3639005766522
 20
699.8123952198194
 10
802.3639005766522
 20
699.9640325897031
 42
-0.3389975099070343
 10
802.6550805768447
 20
700.3441501236835
 42
-0.0599753711554216
 10
804.7973378741023
 20
700.6539773367458
 42
-0.45745073406484
 10
805.1174782592575
 20
700.3009297411491
  0
LWPOLYLINE
  5
BD4
330
1F
100
AcDbEntity
  8
PIC06
  6
Continuous
 62
     7
100
AcDbPolyline
 90
       34
 70
     0
 43
0.0
 10
803.6330358235971
 20
697.1629753813541
 42
-0.0857797321533648
 10
801.262199689166
 20
695.4072100145378
 42
0.2833634535076477
 10
800.3954005766523
 20
694.0005367108462
 42
0.0609162366929173
 10
800.5114129599459
 20
693.0518414842453
 42
-0.0238310987079639
 10
801.9702005766523
 20
685.6934667108462
 10
801.5721233866541
 20
685.6934667108462
 42
0.0006352818844091
 10
801.5423567353762
 20
685.8903167108462
 42
-0.3385908701250218
 10
800.2006614948211
 20
687.2546004089098
 10
799.2287040830777
 20
695.0463361729267
 42
0.4097651532048289
 10
799.0986669024544
 20
695.1491266758089
 42
-0.0115028229277531
 10
790.0578762183324
 20
694.3707459108101
 42
0.3795497850451283
 10
789.8737146118989
 20
694.1854800684613
 10
789.8175612453107
 20
693.1997025639581
 42
-0.3976438591076521
 10
789.5817235636366
 20
692.9769167108462
 10
789.4308555766523
 20
692.9769167108462
 10
789.4308555766523
 20
693.2918767108461
 10
789.5156284400445
 20
693.2918767108461
 10
789.5861391184093
 20
694.1186467108462
 10
789.4308555766523
 20
694.1186467108462
 10
789.4308555766523
 20
694.3548667108461
 10
789.6459365048445
 20
694.5812676878905
 42
-0.1892453549549905
 10
790.0369640531949
 20
694.7639088643509
 42
0.0130846527322151
 10
800.2972236915521
 20
695.680187815237
 42
0.1239994937260868
 10
802.0957743471477
 20
696.3612252964781
 42
0.0500074908384106
 10
803.3482701762244
 20
697.4348360369783
 42
0.0933542208621703
 10
804.3803276812464
 20
699.0237484141303
 42
0.474657421507177
 10
804.2931556695201
 20
699.1846683072755
 10
802.6199956519688
 20
699.5029849384097
 42
-0.3601615323727201
 10
802.3639005766522
 20
699.8123952198194
 10
802.3639005766522
 20
699.9640325897031
 42
-0.3389975099070343
 10
802.6550805768447
 20
700.3441501236835
 42
-0.0599753711554216
 10
804.7973378741023
 20
700.6539773367458
 42
-0.45745073406484
 10
805.1174782592575
 20
700.3009297411491
 42
-0.1615609826812202
 10
803.6330358235971
 20
697.1629753813541
  0
LWPOLYLINE
  5
BD5
330
1F
100
AcDbEntity
  8
PIC06
  6
Continuous
 62
     7
100
AcDbPolyline
 90
       34
 70
     0
 43
0.0
 10
801.262199689166
 20
695.4072100145378
 42
0.2833634535076477
 10
800.3954005766523
 20
694.0005367108462
 42
0.0609162366929173
 10
800.5114129599459
 20
693.0518414842453
 42
-0.0238310987079639
 10
801.9702005766523
 20
685.6934667108462
 10
801.5721233866541
 20
685.6934667108462
 42
0.0006352818844091
 10
801.5423567353762
 20
685.8903167108462
 42
-0.3385908701250218
 10
800.2006614948211
 20
687.2546004089098
 10
799.2287040830777
 20
695.0463361729267
 42
0.4097651532048289
 10
799.0986669024544
 20
695.1491266758089
 42
-0.0115028229277531
 10
790.0578762183324
 20
694.3707459108101
 42
0.3795497850451283
 10
789.8737146118989
 20
694.1854800684613
 10
789.8175612453107
 20
693.1997025639581
 42
-0.3976438591076521
 10
789.5817235636366
 20
692.9769167108462
 10
789.4308555766523
 20
692.9769167108462
 10
789.4308555766523
 20
693.2918767108461
 10
789.5156284400445
 20
693.2918767108461
 10
789.5861391184093
 20
694.1186467108462
 10
789.4308555766523
 20
694.1186467108462
 10
789.4308555766523
 20
694.3548667108461
 10
789.6459365048445
 20
694.5812676878905
 42
-0.1892453549549905
 10
790.0369640531949
 20
694.7639088643509
 42
0.0130846527322151
 10
800.2972236915521
 20
695.680187815237
 42
0.1239994937260868
 10
802.0957743471477
 20
696.3612252964781
 42
0.0500074908384106
 10
803.3482701762244
 20
697.4348360369783
 42
0.0933542208621703
 10
804.3803276812464
 20
699.0237484141303
 42
0.474657421507177
 10
804.2931556695201
 20
699.1846683072755
 10
802.6199956519688
 20
699.5029849384097
 42
-0.3601615323727201
 10
802.3639005766522
 20
699.8123952198194
 10
802.3639005766522
 20
699.9640325897031
 42
-0.3389975099070343
 10
802.6550805768447
 20
700.3441501236835
 42
-0.0599753711554216
 10
804.7973378741023
 20
700.6539773367458
 42
-0.45745073406484
 10
805.1174782592575
 20
700.3009297411491
 42
-0.1615609826812202
 10
803.6330358235971
 20
697.1629753813541
 42
-0.0857797321533648
 10
801.262199689166
 20
695.4072100145378
  0
LWPOLYLINE
  5
BD6
330
1F
100
AcDbEntity
  8
PIC06
  6
Continuous
 62
     7
100
AcDbPolyline
 90
       34
 70
     0
 43
0.0
 10
800.5114129599459
 20
693.0518414842453
 42
-0.0238310987079639
 10
801.9702005766523
 20
685.6934667108462
 10
801.5721233866541
 20
685.6934667108462
 42
0.0006352818844091
 10
801.5423567353762
 20
685.8903167108462
 42
-0.3385908701250218
 10
800.2006614948211
 20
687.2546004089098
 10
799.2287040830777
 20
695.0463361729267
 42
0.4097651532048289
 10
799.0986669024544
 20
695.1491266758089
 42
-0.0115028229277531
 10
790.0578762183324
 20
694.3707459108101
 42
0.3795497850451283
 10
789.8737146118989
 20
694.1854800684613
 10
789.8175612453107
 20
693.1997025639581
 42
-0.3976438591076521
 10
789.5817235636366
 20
692.9769167108462
 10
789.4308555766523
 20
692.9769167108462
 10
789.4308555766523
 20
693.2918767108461
 10
789.5156284400445
 20
693.2918767108461
 10
789.5861391184093
 20
694.1186467108462
 10
789.4308555766523
 20
694.1186467108462
 10
789.4308555766523
 20
694.3548667108461
 10
789.6459365048445
 20
694.5812676878905
 42
-0.1892453549549905
 10
790.0369640531949
 20
694.7639088643509
 42
0.0130846527322151
 10
800.2972236915521
 20
695.680187815237
 42
0.1239994937260868
 10
802.0957743471477
 20
696.3612252964781
 42
0.0500074908384106
 10
803.3482701762244
 20
697.4348360369783
 42
0.0933542208621703
 10
804.3803276812464
 20
699.0237484141303
 42
0.474657421507177
 10
804.2931556695201
 20
699.1846683072755
 10
802.6199956519688
 20
699.5029849384097
 42
-0.3601615323727201
 10
802.3639005766522
 20
699.8123952198194
 10
802.3639005766522
 20
699.9640325897031
 42
-0.3389975099070343
 10
802.6550805768447
 20
700.3441501236835
 42
-0.0599753711554216
 10
804.7973378741023
 20
700.6539773367458
 42
-0.45745073406484
 10
805.1174782592575
 20
700.3009297411491
 42
-0.1615609826812202
 10
803.6330358235971
 20
697.1629753813541
 42
-0.0857797321533648
 10
801.262199689166
 20
695.4072100145378
 42
0.2833634535076477
 10
800.3954005766523
 20
694.0005367108462
 42
0.0609162366929173
 10
800.5114129599459
 20
693.0518414842453
  0
LWPOLYLINE
  5
BD7
330
1F
100
AcDbEntity
  8
PIC06
  6
Continuous
 62
     7
100
AcDbPolyline
 90
        9
 70
     0
 43
0.0
 10
799.5412418338251
 20
695.0853227854722
 10
800.5131992455686
 20
687.2935870214553
 42
0.3356865359607339
 10
801.5735531362096
 20
686.2040721588117
 42
0.0220337369746371
 10
800.2057338815159
 20
692.9759461443987
 42
-0.0609162197722536
 10
800.0804405766523
 20
694.0005367108462
 42
-0.2187175991477727
 10
800.7391233691897
 20
695.4342876539552
 42
-0.0241898279781362
 10
800.3334379027913
 20
695.3673167035884
 42
-0.0010975898904879
 10
799.4733384854024
 20
695.2696747850239
 42
-0.1149086990761825
 10
799.5412418338251
 20
695.0853227854722
  0
LWPOLYLINE
  5
BD8
330
1F
100
AcDbEntity
  8
PIC06
  6
Continuous
 62
     7
100
AcDbPolyline
 90
       34
 70
     0
 43
0.0
 10
801.5721233866541
 20
685.6934667108462
 42
0.0006352818844091
 10
801.5423567353762
 20
685.8903167108462
 42
-0.3385908701250218
 10
800.2006614948211
 20
687.2546004089098
 10
799.2287040830777
 20
695.0463361729267
 42
0.4097651532048289
 10
799.0986669024544
 20
695.1491266758089
 42
-0.0115028229277531
 10
790.0578762183324
 20
694.3707459108101
 42
0.3795497850451283
 10
789.8737146118989
 20
694.1854800684613
 10
789.8175612453107
 20
693.1997025639581
 42
-0.3976438591076521
 10
789.5817235636366
 20
692.9769167108462
 10
789.4308555766523
 20
692.9769167108462
 10
789.4308555766523
 20
693.2918767108461
 10
789.5156284400445
 20
693.2918767108461
 10
789.5861391184093
 20
694.1186467108462
 10
789.4308555766523
 20
694.1186467108462
 10
789.4308555766523
 20
694.3548667108461
 10
789.6459365048445
 20
694.5812676878905
 42
-0.1892453549549905
 10
790.0369640531949
 20
694.7639088643509
 42
0.0130846527322151
 10
800.2972236915521
 20
695.680187815237
 42
0.1239994937260868
 10
802.0957743471477
 20
696.3612252964781
 42
0.0500074908384106
 10
803.3482701762244
 20
697.4348360369783
 42
0.0933542208621703
 10
804.3803276812464
 20
699.0237484141303
 42
0.474657421507177
 10
804.2931556695201
 20
699.1846683072755
 10
802.6199956519688
 20
699.5029849384097
 42
-0.3601615323727201
 10
802.3639005766522
 20
699.8123952198194
 10
802.3639005766522
 20
699.9640325897031
 42
-0.3389975099070343
 10
802.6550805768447
 20
700.3441501236835
 42
-0.0599753711554216
 10
804.7973378741023
 20
700.6539773367458
 42
-0.45745073406484
 10
805.1174782592575
 20
700.3009297411491
 42
-0.1615609826812202
 10
803.6330358235971
 20
697.1629753813541
 42
-0.0857797321533648
 10
801.262199689166
 20
695.4072100145378
 42
0.2833634535076477
 10
800.3954005766523
 20
694.0005367108462
 42
0.0609162366929173
 10
800.5114129599459
 20
693.0518414842453
 42
-0.0238310987079639
 10
801.9702005766523
 20
685.6934667108462
 10
801.5721233866541
 20
685.6934667108462
  0
LWPOLYLINE
  5
BD9
330
1F
100
AcDbEntity
  8
PIC06
  6
Continuous
 62
     7
100
AcDbPolyline
 90
       34
 70
     0
 43
0.0
 10
790.0369640531949
 20
694.7639088643509
 42
0.0130846527322151
 10
800.2972236915521
 20
695.680187815237
 42
0.1239994937260868
 10
802.0957743471477
 20
696.3612252964781
 42
0.0500074908384106
 10
803.3482701762244
 20
697.4348360369783
 42
0.0933542208621703
 10
804.3803276812464
 20
699.0237484141303
 42
0.474657421507177
 10
804.2931556695201
 20
699.1846683072755
 10
802.6199956519688
 20
699.5029849384097
 42
-0.3601615323727201
 10
802.3639005766522
 20
699.8123952198194
 10
802.3639005766522
 20
699.9640325897031
 42
-0.3389975099070343
 10
802.6550805768447
 20
700.3441501236835
 42
-0.0599753711554216
 10
804.7973378741023
 20
700.6539773367458
 42
-0.45745073406484
 10
805.1174782592575
 20
700.3009297411491
 42
-0.1615609826812202
 10
803.6330358235971
 20
697.1629753813541
 42
-0.0857797321533648
 10
801.262199689166
 20
695.4072100145378
 42
0.2833634535076477
 10
800.3954005766523
 20
694.0005367108462
 42
0.0609162366929173
 10
800.5114129599459
 20
693.0518414842453
 42
-0.0238310987079639
 10
801.9702005766523
 20
685.6934667108462
 10
801.5721233866541
 20
685.6934667108462
 42
0.0006352818844091
 10
801.5423567353762
 20
685.8903167108462
 42
-0.3385908701250218
 10
800.2006614948211
 20
687.2546004089098
 10
799.2287040830777
 20
695.0463361729267
 42
0.4097651532048289
 10
799.0986669024544
 20
695.1491266758089
 42
-0.0115028229277531
 10
790.0578762183324
 20
694.3707459108101
 42
0.3795497850451283
 10
789.8737146118989
 20
694.1854800684613
 10
789.8175612453107
 20
693.1997025639581
 42
-0.3976438591076521
 10
789.5817235636366
 20
692.9769167108462
 10
789.4308555766523
 20
692.9769167108462
 10
789.4308555766523
 20
693.2918767108461
 10
789.5156284400445
 20
693.2918767108461
 10
789.5861391184093
 20
694.1186467108462
 10
789.4308555766523
 20
694.1186467108462
 10
789.4308555766523
 20
694.3548667108461
 10
789.6459365048445
 20
694.5812676878905
 42
-0.1892453549549905
 10
790.0369640531949
 20
694.7639088643509
  0
LWPOLYLINE
  5
BDA
330
1F
100
AcDbEntity
  8
PIC06
  6
Continuous
 62
     7
100
AcDbPolyline
 90
       34
 70
     0
 43
0.0
 10
789.4308555766523
 20
694.3548667108461
 10
789.6459365048445
 20
694.5812676878905
 42
-0.1892453549549905
 10
790.0369640531949
 20
694.7639088643509
 42
0.0130846527322151
 10
800.2972236915521
 20
695.680187815237
 42
0.1239994937260868
 10
802.0957743471477
 20
696.3612252964781
 42
0.0500074908384106
 10
803.3482701762244
 20
697.4348360369783
 42
0.0933542208621703
 10
804.3803276812464
 20
699.0237484141303
 42
0.474657421507177
 10
804.2931556695201
 20
699.1846683072755
 10
802.6199956519688
 20
699.5029849384097
 42
-0.3601615323727201
 10
802.3639005766522
 20
699.8123952198194
 10
802.3639005766522
 20
699.9640325897031
 42
-0.3389975099070343
 10
802.6550805768447
 20
700.3441501236835
 42
-0.0599753711554216
 10
804.7973378741023
 20
700.6539773367458
 42
-0.45745073406484
 10
805.1174782592575
 20
700.3009297411491
 42
-0.1615609826812202
 10
803.6330358235971
 20
697.1629753813541
 42
-0.0857797321533648
 10
801.262199689166
 20
695.4072100145378
 42
0.2833634535076477
 10
800.3954005766523
 20
694.0005367108462
 42
0.0609162366929173
 10
800.5114129599459
 20
693.0518414842453
 42
-0.0238310987079639
 10
801.9702005766523
 20
685.6934667108462
 10
801.5721233866541
 20
685.6934667108462
 42
0.0006352818844091
 10
801.5423567353762
 20
685.8903167108462
 42
-0.3385908701250218
 10
800.2006614948211
 20
687.2546004089098
 10
799.2287040830777
 20
695.0463361729267
 42
0.4097651532048289
 10
799.0986669024544
 20
695.1491266758089
 42
-0.0115028229277531
 10
790.0578762183324
 20
694.3707459108101
 42
0.3795497850451283
 10
789.8737146118989
 20
694.1854800684613
 10
789.8175612453107
 20
693.1997025639581
 42
-0.3976438591076521
 10
789.5817235636366
 20
692.9769167108462
 10
789.4308555766523
 20
692.9769167108462
 10
789.4308555766523
 20
693.2918767108461
 10
789.5156284400445
 20
693.2918767108461
 10
789.5861391184093
 20
694.1186467108462
 10
789.4308555766523
 20
694.1186467108462
 10
789.4308555766523
 20
694.3548667108461
  0
LWPOLYLINE
  5
BDB
330
1F
100
AcDbEntity
  8
PIC06
  6
Continuous
 62
     7
100
AcDbPolyline
 90
       34
 70
     0
 43
0.0
 10
789.5156284400445
 20
693.2918767108461
 10
789.5861391184093
 20
694.1186467108462
 10
789.4308555766523
 20
694.1186467108462
 10
789.4308555766523
 20
694.3548667108461
 10
789.6459365048445
 20
694.5812676878905
 42
-0.1892453549549905
 10
790.0369640531949
 20
694.7639088643509
 42
0.0130846527322151
 10
800.2972236915521
 20
695.680187815237
 42
0.1239994937260868
 10
802.0957743471477
 20
696.3612252964781
 42
0.0500074908384106
 10
803.3482701762244
 20
697.4348360369783
 42
0.0933542208621703
 10
804.3803276812464
 20
699.0237484141303
 42
0.474657421507177
 10
804.2931556695201
 20
699.1846683072755
 10
802.6199956519688
 20
699.5029849384097
 42
-0.3601615323727201
 10
802.3639005766522
 20
699.8123952198194
 10
802.3639005766522
 20
699.9640325897031
 42
-0.3389975099070343
 10
802.6550805768447
 20
700.3441501236835
 42
-0.0599753711554216
 10
804.7973378741023
 20
700.6539773367458
 42
-0.45745073406484
 10
805.1174782592575
 20
700.3009297411491
 42
-0.1615609826812202
 10
803.6330358235971
 20
697.1629753813541
 42
-0.0857797321533648
 10
801.262199689166
 20
695.4072100145378
 42
0.2833634535076477
 10
800.3954005766523
 20
694.0005367108462
 42
0.0609162366929173
 10
800.5114129599459
 20
693.0518414842453
 42
-0.0238310987079639
 10
801.9702005766523
 20
685.6934667108462
 10
801.5721233866541
 20
685.6934667108462
 42
0.0006352818844091
 10
801.5423567353762
 20
685.8903167108462
 42
-0.3385908701250218
 10
800.2006614948211
 20
687.2546004089098
 10
799.2287040830777
 20
695.0463361729267
 42
0.4097651532048289
 10
799.0986669024544
 20
695.1491266758089
 42
-0.0115028229277531
 10
790.0578762183324
 20
694.3707459108101
 42
0.3795497850451283
 10
789.8737146118989
 20
694.1854800684613
 10
789.8175612453107
 20
693.1997025639581
 42
-0.3976438591076521
 10
789.5817235636366
 20
692.9769167108462
 10
789.4308555766523
 20
692.9769167108462
 10
789.4308555766523
 20
693.2918767108461
 10
789.5156284400445
 20
693.2918767108461
  0
CIRCLE
  5
BDC
330
1F
100
AcDbEntity
  8
PIC06
  6
DASHED
 62
     7
100
AcDbCircle
 10
794.0962005766523
 20
710.6781275023671
 30
0.0
 40
0.216534999999999
  0
LINE
  5
BDD
330
1F
100
AcDbEntity
  8
PIC06
  6
DASHED
 62
     7
100
AcDbLine
 10
788.8993605766524
 20
709.6938775023671
 30
0.0
 11
793.9946354190331
 21
709.6938775023671
 31
0.0
  0
ARC
  5
BDE
330
1F
100
AcDbEntity
  8
PIC06
  6
DASHED
 62
     7
100
AcDbCircle
 10
793.9946354190331
 20
721.5048775023671
 30
0.0
 40
11.81099999999994
100
AcDbArc
 50
270.0
 51
303.1534084156947
  0
LINE
  5
BDF
330
1F
100
AcDbEntity
  8
PIC06
  6
DASHED
 62
     7
100
AcDbLine
 10
788.8993605766524
 20
710.6781275023671
 30
0.0
 11
789.7165778128004
 21
710.6781275023671
 31
0.0
  0
LINE
  5
BE0
330
1F
100
AcDbEntity
  8
PIC06
  6
DASHED
 62
     7
100
AcDbLine
 10
790.2081233405042
 20
711.0718275023672
 30
0.0
 11
792.3377228783291
 21
711.0718275023672
 31
0.0
  0
LINE
  5
BE1
330
1F
100
AcDbEntity
  8
PIC06
  6
DASHED
 62
     7
100
AcDbLine
 10
788.5844005766523
 20
710.0088375023672
 30
0.0
 11
788.5844005766523
 21
710.3631675023672
 31
0.0
  0
LINE
  5
BE2
330
1F
100
AcDbEntity
  8
PIC06
  6
DASHED
 62
     7
100
AcDbLine
 10
789.8000941947263
 20
710.7127211204413
 30
0.0
 11
790.1246069585782
 21
711.0372338842932
 31
0.0
  0
ARC
  5
BE3
330
1F
100
AcDbEntity
  8
PIC06
  6
DASHED
 62
     7
100
AcDbCircle
 10
798.6237505766523
 20
714.4182775023671
 30
0.0
 40
2.952749999999983
100
AcDbArc
 50
303.1534084156947
 51
0.0
  0
ARC
  5
BE4
330
1F
100
AcDbEntity
  8
PIC06
  6
DASHED
 62
     7
100
AcDbCircle
 10
793.9946354190331
 20
721.5048775023671
 30
0.0
 40
11.41729999999995
100
AcDbArc
 50
287.3672579442474
 51
303.1534084156947
  0
ARC
  5
BE5
330
1F
100
AcDbEntity
  8
PIC06
  6
DASHED
 62
     7
100
AcDbCircle
 10
794.0962005766523
 20
709.7332475023671
 30
0.0
 40
2.16534999999999
100
AcDbArc
 50
50.88702384895164
 51
140.3622856093307
  0
ARC
  5
BE6
330
1F
100
AcDbEntity
  8
PIC06
  6
DASHED
 62
     7
100
AcDbCircle
 10
793.9946354190331
 20
721.5048775023671
 30
0.0
 40
10.23619999999995
100
AcDbArc
 50
278.7665658635835
 51
283.6736369388567
  0
ARC
  5
BE7
330
1F
100
AcDbEntity
  8
PIC06
  6
DASHED
 62
     7
100
AcDbCircle
 10
795.5367248514829
 20
711.5049922315039
 30
0.0
 40
0.1181099999999994
100
AcDbArc
 50
230.8870238489516
 51
278.7665658635835
  0
ARC
  5
BE8
330
1F
100
AcDbEntity
  8
PIC06
  6
DASHED
 62
     7
100
AcDbCircle
 10
792.3377228783291
 20
711.1899375023672
 30
0.0
 40
0.1181099999999995
100
AcDbArc
 50
270.0
 51
320.3622856093308
  0
ARC
  5
BE9
330
1F
100
AcDbEntity
  8
PIC06
  6
DASHED
 62
     7
100
AcDbCircle
 10
788.8993605766524
 20
710.3631675023672
 30
0.0
 40
0.3149599999999986
100
AcDbArc
 50
90.0
 51
180.0
  0
ARC
  5
BEA
330
1F
100
AcDbEntity
  8
PIC06
  6
DASHED
 62
     7
100
AcDbCircle
 10
788.8993605766524
 20
710.0088375023672
 30
0.0
 40
0.3149599999999986
100
AcDbArc
 50
180.0
 51
270.0
  0
ARC
  5
BEB
330
1F
100
AcDbEntity
  8
PIC06
  6
DASHED
 62
     7
100
AcDbCircle
 10
789.7165778128004
 20
710.7962375023671
 30
0.0
 40
0.1181099999999995
100
AcDbArc
 50
270.0
 51
315.0
  0
ARC
  5
BEC
330
1F
100
AcDbEntity
  8
PIC06
  6
DASHED
 62
     7
100
AcDbCircle
 10
790.2081233405042
 20
710.9537175023672
 30
0.0
 40
0.1181100000000005
100
AcDbArc
 50
90.0
 51
135.0
  0
ARC
  5
BED
330
1F
100
AcDbEntity
  8
PIC06
  6
DASHED
 62
     7
100
AcDbCircle
 10
793.9946354190331
 20
721.5048775023671
 30
0.0
 40
11.41729999999995
100
AcDbArc
 50
270.0
 51
287.3672579442474
  0
LINE
  5
BEE
330
1F
100
AcDbEntity
  8
PIC06
  6
DASHED
 62
     7
100
AcDbLine
 10
788.5844005766523
 20
710.0875775023671
 30
0.0
 11
793.9946354190331
 21
710.0875775023671
 31
0.0
  0
LINE
  5
BEF
330
1F
100
AcDbEntity
  8
PIC06
  6
DASHED
 62
     7
100
AcDbLine
 10
789.7165778128004
 20
710.6781275023671
 30
0.0
 11
792.4328180766523
 21
710.6781275023671
 31
0.0
  0
ARC
  5
BF0
330
1F
100
AcDbEntity
  8
PIC06
  6
DASHED
 62
     7
100
AcDbCircle
 10
793.9946354190331
 20
721.5048775023671
 30
0.0
 40
10.62989999999994
100
AcDbArc
 50
279.2347926602371
 51
285.3093740921057
  0
LINE
  5
BF1
330
1F
100
AcDbEntity
  8
PIC06
  6
DASHED
 62
     7
100
AcDbLine
 10
792.6395105766523
 20
710.7765688276459
 30
0.0
 11
792.6395105766523
 21
710.0875775023671
 31
0.0
  0
LINE
  5
BF2
330
1F
100
AcDbEntity
  8
PIC06
  6
DASHED
 62
     7
100
AcDbLine
 10
792.3639205766524
 20
711.0718275023672
 30
0.0
 11
792.3639205766524
 21
710.6781275023671
 31
0.0
  0
LINE
  5
BF3
330
1F
100
AcDbEntity
  8
PIC06
  6
DASHED
 62
     7
100
AcDbLine
 10
792.4328180766523
 20
710.6781275023671
 30
0.0
 11
792.4328180766523
 21
710.0875775023671
 31
0.0
  0
LINE
  5
BF4
330
1F
100
AcDbEntity
  8
PIC06
  6
DASHED
 62
     7
100
AcDbLine
 10
795.7497405766523
 20
711.4202656444075
 30
0.0
 11
795.7497405766523
 21
711.0208715935698
 31
0.0
  0
LINE
  5
BF5
330
1F
100
AcDbEntity
  8
PIC06
  6
DASHED
 62
     7
100
AcDbLine
 10
795.5528905766523
 20
710.9934375956831
 30
0.0
 11
795.5528905766523
 21
710.1944141982512
 31
0.0
  0
LINE
  5
BF6
330
1F
100
AcDbEntity
  8
PIC06
  6
DASHED
 62
     7
100
AcDbLine
 10
795.7005280766524
 20
711.0127516810343
 30
0.0
 11
795.7005280766524
 21
710.2157380519626
 31
0.0
  0
LINE
  5
BF7
330
1F
100
AcDbEntity
  8
PIC06
  6
DASHED
 62
     7
100
AcDbLine
 10
795.6021030766524
 20
711.3956817791798
 30
0.0
 11
795.6021030766524
 21
710.9973750885964
 31
0.0
  0
ARC
  5
BF8
330
1F
100
AcDbEntity
  8
PIC06
  6
DASHED
 62
     7
100
AcDbCircle
 10
794.0962005766523
 20
709.7332475023671
 30
0.0
 40
1.771649999999992
100
AcDbArc
 50
50.88702384895164
 51
140.3622856093307
  0
ARC
  5
BF9
330
1F
100
AcDbEntity
  8
PIC06
  6
DASHED
 62
     7
100
AcDbCircle
 10
795.5367248514829
 20
711.5049922315039
 30
0.0
 40
0.5118099999999965
100
AcDbArc
 50
230.8870238489516
 51
277.3389716369989
  0
ARC
  5
BFA
330
1F
100
AcDbEntity
  8
PIC06
  6
DASHED
 62
     7
100
AcDbCircle
 10
792.3377228783291
 20
711.1899375023672
 30
0.0
 40
0.5118099999999965
100
AcDbArc
 50
299.5704963346888
 51
320.3622856093308
  0
LINE
  5
BFB
330
1F
100
AcDbEntity
  8
PIC06
  6
DASHED
 62
     7
100
AcDbLine
 10
792.5902980766523
 20
711.2892032482011
 30
0.0
 11
792.5902980766523
 21
710.7447911833977
 31
0.0
  0
ARC
  5
BFC
330
1F
100
AcDbEntity
  8
PIC06
  6
DASHED
 62
     7
100
AcDbCircle
 10
798.6237505766523
 20
714.4182775023671
 30
0.0
 40
1.771649999999991
100
AcDbArc
 50
303.1534084156947
 51
0.0
  0
ARC
  5
BFD
330
1F
100
AcDbEntity
  8
PIC06
  6
DASHED
 62
     7
100
AcDbCircle
 10
793.9946354190331
 20
721.5048775023671
 30
0.0
 40
10.23619999999995
100
AcDbArc
 50
287.3672579442474
 51
303.1534084156947
  0
ARC
  5
BFE
330
1F
100
AcDbEntity
  8
PIC06
  6
DASHED
 62
     7
100
AcDbCircle
 10
793.9946354190331
 20
721.5048775023671
 30
0.0
 40
10.23619999999995
100
AcDbArc
 50
287.3672579442474
 51
299.5181146797049
  0
ARC
  5
BFF
330
1F
100
AcDbEntity
  8
PIC06
  6
DASHED
 62
     7
100
AcDbCircle
 10
793.9946354190331
 20
721.5048775023671
 30
0.0
 40
10.23619999999995
100
AcDbArc
 50
283.6736369388567
 51
287.3672579442474
  0
LINE
  5
C00
330
1F
100
AcDbEntity
  8
PIC06
  6
DASHED
 62
     7
100
AcDbLine
 10
799.2143005766523
 20
712.4945572777652
 30
0.0
 11
799.2143005766523
 21
712.3140198722072
 31
0.0
  0
ARC
  5
C01
330
1F
100
AcDbEntity
  8
PIC06
  6
DASHED
 62
     7
100
AcDbCircle
 10
793.9946354190331
 20
721.5048775023671
 30
0.0
 40
10.62989999999994
100
AcDbArc
 50
285.3093740921057
 51
299.0332732093358
  0
ARC
  5
C02
330
1F
100
AcDbEntity
  8
PIC06
  6
DASHED
 62
     7
100
AcDbCircle
 10
799.0961905766523
 20
712.4945572777652
 30
0.0
 40
0.1181099999999995
100
AcDbArc
 50
0.0
 51
119.5181146797049
  0
ARC
  5
C03
330
1F
100
AcDbEntity
  8
PIC06
  6
DASHED
 62
     7
100
AcDbCircle
 10
799.0961905766523
 20
712.3140198722072
 30
0.0
 40
0.1181099999999995
100
AcDbArc
 50
299.0332732093358
 51
0.0
  0
ARC
  5
C04
330
1F
100
AcDbEntity
  8
PIC06
  6
DASHED
 62
     7
100
AcDbCircle
 10
798.6237505766523
 20
714.4182775023671
 30
0.0
 40
3.346449999999983
100
AcDbArc
 50
303.1534084156947
 51
0.0
  0
LINE
  5
C05
330
1F
100
AcDbEntity
  8
PIC06
  6
DASHED
 62
     7
100
AcDbLine
 10
823.4186373692315
 20
694.288022484419
 30
0.0
 11
822.6889244354435
 21
686.4808667108462
 31
0.0
  0
LINE
  5
C06
330
1F
100
AcDbEntity
  8
PIC06
  6
DASHED
 62
     7
100
AcDbLine
 10
822.2952244354434
 20
686.2840167108462
 30
0.0
 11
822.6889244354435
 21
686.2840167108462
 31
0.0
  0
LINE
  5
C07
330
1F
100
AcDbEntity
  8
PIC06
  6
DASHED
 62
     7
100
AcDbLine
 10
822.2952244354434
 20
686.2840167108462
 30
0.0
 11
822.2952244354434
 21
686.3627567108462
 31
0.0
  0
ARC
  5
C08
330
1F
100
AcDbEntity
  8
PIC06
  6
DASHED
 62
     7
100
AcDbCircle
 10
822.1771144354434
 20
686.3627567108462
 30
0.0
 40
0.1181099999999995
100
AcDbArc
 50
0.0
 51
90.0
  0
LINE
  5
C09
330
1F
100
AcDbEntity
  8
PIC06
  6
DASHED
 62
     7
100
AcDbLine
 10
822.6889244354435
 20
686.2840167108462
 30
0.0
 11
822.6889244354435
 21
686.4808667108462
 31
0.0
  0
ARC
  5
C0A
330
1F
100
AcDbEntity
  8
PIC06
  6
DASHED
 62
     7
100
AcDbCircle
 10
823.5362348137675
 20
694.2770309813997
 30
0.0
 40
0.1181099999999997
100
AcDbArc
 50
84.13413787970577
 51
174.6602378645468
  0
ARC
  5
C0B
330
1F
100
AcDbEntity
  8
PIC06
  6
DASHED
 62
     7
100
AcDbCircle
 10
826.7224787505179
 20
694.1773689233888
 30
0.0
 40
0.1968499999999989
100
AcDbArc
 50
95.10052799304469
 51
176.739753420958
  0
ARC
  5
C0C
330
1F
100
AcDbEntity
  8
PIC06
  6
DASHED
 62
     7
100
AcDbCircle
 10
825.2364576396406
 20
710.8261762188118
 30
0.0
 40
16.51814455884158
100
AcDbArc
 50
275.1005279930446
 51
275.8658621202942
  0
LINE
  5
C0D
330
1F
100
AcDbEntity
  8
PIC06
  6
DASHED
 62
     7
100
AcDbLine
 10
827.0542779100493
 20
694.288022484419
 30
0.0
 11
827.7839908438375
 21
686.4808667108462
 31
0.0
  0
ARC
  5
C0E
330
1F
100
AcDbEntity
  8
PIC06
  6
DASHED
 62
     7
100
AcDbCircle
 10
826.9366804655135
 20
694.2770309813997
 30
0.0
 40
0.1181099999999997
100
AcDbArc
 50
5.339762135453197
 51
95.86586212029422
  0
LINE
  5
C0F
330
1F
100
AcDbEntity
  8
PIC06
  6
DASHED
 62
     7
100
AcDbLine
 10
827.7839908438375
 20
686.2840167108462
 30
0.0
 11
827.7839908438375
 21
686.4808667108462
 31
0.0
  0
LINE
  5
C10
330
1F
100
AcDbEntity
  8
PIC06
  6
DASHED
 62
     7
100
AcDbLine
 10
828.1776908438374
 20
686.2840167108462
 30
0.0
 11
827.7839908438375
 21
686.2840167108462
 31
0.0
  0
LINE
  5
C11
330
1F
100
AcDbEntity
  8
PIC06
  6
DASHED
 62
     7
100
AcDbLine
 10
828.1776908438374
 20
686.2840167108462
 30
0.0
 11
828.1776908438374
 21
686.3627567108462
 31
0.0
  0
ARC
  5
C12
330
1F
100
AcDbEntity
  8
PIC06
  6
DASHED
 62
     7
100
AcDbCircle
 10
828.2958008438374
 20
686.3627567108462
 30
0.0
 40
0.1181099999999995
100
AcDbArc
 50
90.0
 51
180.0
  0
LINE
  5
C13
330
1F
100
AcDbEntity
  8
PIC06
  6
DASHED
 62
     7
100
AcDbLine
 10
829.4093778389182
 20
686.4808667108462
 30
0.0
 11
828.2958008438374
 21
686.4808667108462
 31
0.0
  0
LINE
  5
C14
330
1F
100
AcDbEntity
  8
PIC06
  6
DASHED
 62
     7
100
AcDbLine
 10
829.5940957457988
 20
686.8745667108462
 30
0.0
 11
828.3219177404765
 21
686.8745667108462
 31
0.0
  0
ARC
  5
C15
330
1F
100
AcDbEntity
  8
PIC06
  6
DASHED
 62
     7
100
AcDbCircle
 10
822.1509975388043
 20
687.0714167108462
 30
0.0
 40
0.1968499999999987
100
AcDbArc
 50
270.0
 51
354.6602378645468
  0
LINE
  5
C16
330
1F
100
AcDbEntity
  8
PIC06
  6
DASHED
 62
     7
100
AcDbLine
 10
822.4471138194797
 20
688.1242813074759
 30
0.0
 11
822.3469932796975
 21
687.0530975391472
 31
0.0
  0
ARC
  5
C17
330
1F
100
AcDbEntity
  8
PIC06
  6
DASHED
 62
     7
100
AcDbCircle
 10
821.0751436332275
 20
688.2525155093691
 30
0.0
 40
1.377949999999993
100
AcDbArc
 50
354.6602378645468
 51
34.33524946164425
  0
ARC
  5
C18
330
1F
100
AcDbEntity
  8
PIC06
  6
DASHED
 62
     7
100
AcDbCircle
 10
811.8098408192167
 20
681.9237982643673
 30
0.0
 40
12.59839999999994
100
AcDbArc
 50
34.33524946164425
 51
40.89897230087341
  0
ARC
  5
C19
330
1F
100
AcDbEntity
  8
PIC06
  6
DASHED
 62
     7
100
AcDbCircle
 10
822.3740775883481
 20
691.0744955497238
 30
0.0
 40
1.377949999999993
100
AcDbArc
 50
172.8797573228218
 51
220.8989723008734
  0
ARC
  5
C1A
330
1F
100
AcDbEntity
  8
PIC06
  6
DASHED
 62
     7
100
AcDbCircle
 10
828.0988376909329
 20
691.0744955497238
 30
0.0
 40
1.377949999999993
100
AcDbArc
 50
319.1010276991266
 51
7.120242677178112
  0
ARC
  5
C1B
330
1F
100
AcDbEntity
  8
PIC06
  6
DASHED
 62
     7
100
AcDbCircle
 10
838.663074460064
 20
681.9237982643673
 30
0.0
 40
12.59839999999994
100
AcDbArc
 50
139.1010276991266
 51
145.6647505383557
  0
ARC
  5
C1C
330
1F
100
AcDbEntity
  8
PIC06
  6
DASHED
 62
     7
100
AcDbCircle
 10
829.3977716460535
 20
688.2525155093691
 30
0.0
 40
1.377949999999993
100
AcDbArc
 50
145.6647505383557
 51
185.3397621354532
  0
LINE
  5
C1D
330
1F
100
AcDbEntity
  8
PIC06
  6
DASHED
 62
     7
100
AcDbLine
 10
828.0258014598013
 20
688.1242813074759
 30
0.0
 11
828.1259219995833
 21
687.0530975391472
 31
0.0
  0
ARC
  5
C1E
330
1F
100
AcDbEntity
  8
PIC06
  6
DASHED
 62
     7
100
AcDbCircle
 10
828.3219177404765
 20
687.0714167108462
 30
0.0
 40
0.1968499999999987
100
AcDbArc
 50
185.3397621354532
 51
270.0
  0
LWPOLYLINE
  5
C1F
330
1F
100
AcDbEntity
  8
PIC06
  6
Continuous
 62
     7
100
AcDbPolyline
 90
       31
 70
     0
 43
0.0
 10
786.2222005766524
 20
700.0635167108462
 42
0.4142135623731007
 10
786.0253505766523
 20
700.2603667108461
 10
785.7300755766524
 20
700.2603667108461
 10
785.7300755766524
 20
700.6540667108461
 10
787.0883405766524
 20
700.6540667108461
 42
-0.414213562373094
 10
787.4033005766524
 20
700.3391067108461
 10
787.4033005766524
 20
699.7463626959428
 42
-0.2840790438404148
 10
787.2291949706911
 20
699.4646539078654
 10
786.6819796694317
 20
699.1910462572358
 42
0.2873118881550465
 10
786.6166985081132
 20
699.0839934269412
 42
0.0259107459806529
 10
786.8245699463833
 20
695.8284738569203
 42
0.175588365518459
 10
787.3639305766523
 20
694.7485667108461
 10
787.7379455766523
 20
694.3548667108461
 10
787.7379455766523
 20
694.1186467108462
 10
787.527926651049
 20
694.1186467108462
 10
787.140899456692
 20
694.5260437575378
 42
-0.1745542726644663
 10
786.5117111676688
 20
695.7921532542096
 42
-0.004132713279625
 10
786.4553901095948
 20
696.3149817719568
 42
0.4362235006680913
 10
787.3489327764769
 20
693.6331404589687
 42
-0.1940637552100273
 10
787.6738917025266
 20
693.2918767108461
 10
787.7379455766523
 20
693.2918767108461
 10
787.7379455766523
 20
692.9769167108462
 10
787.6177188229371
 20
692.9769167108462
 42
-0.3337763798602625
 10
787.3908424316722
 20
693.1473568394064
 42
0.2189233483562387
 10
787.2186366765646
 20
693.3463954015611
 42
-0.2455770844635377
 10
785.9400526959205
 20
694.9847867108462
 42
-0.001587298553994
 10
785.9122839365275
 20
695.1891314655526
 42
-0.1777892156237416
 10
786.3140519191306
 20
696.6824632407715
 42
0.1766762164573175
 10
786.3352496165748
 20
696.7605805867736
 42
-0.018807447457346
 10
786.2222005766524
 20
699.1561217313818
 10
786.2222005766524
 20
700.0635167108462
  0
LWPOLYLINE
  5
C20
330
1F
100
AcDbEntity
  8
PIC06
  6
Continuous
 62
     7
100
AcDbPolyline
 90
        6
 70
     0
 43
0.0
 10
787.0883405766524
 20
700.3391067108461
 10
786.6552705766523
 20
700.3391067108461
 42
0.4142135623731022
 10
786.5371605766523
 20
700.2209967108462
 10
786.5371605766523
 20
699.4707726959428
 10
787.0883405766524
 20
699.7463626959428
 10
787.0883405766524
 20
700.3391067108461
  0
LWPOLYLINE
  5
C21
330
1F
100
AcDbEntity
  8
PIC06
  6
Continuous
 62
     7
100
AcDbPolyline
 90
        6
 70
     0
 43
0.0
 10
787.0883405766524
 20
699.7463626959428
 10
787.0883405766524
 20
700.3391067108461
 10
786.6552705766523
 20
700.3391067108461
 42
0.4142135623731022
 10
786.5371605766523
 20
700.2209967108462
 10
786.5371605766523
 20
699.4707726959428
 10
787.0883405766524
 20
699.7463626959428
  0
LWPOLYLINE
  5
C22
330
1F
100
AcDbEntity
  8
PIC06
  6
Continuous
 62
     7
100
AcDbPolyline
 90
        6
 70
     0
 43
0.0
 10
786.5371605766523
 20
699.4707726959428
 10
787.0883405766524
 20
699.7463626959428
 10
787.0883405766524
 20
700.3391067108461
 10
786.6552705766523
 20
700.3391067108461
 42
0.4142135623731022
 10
786.5371605766523
 20
700.2209967108462
 10
786.5371605766523
 20
699.4707726959428
  0
LWPOLYLINE
  5
C23
330
1F
100
AcDbEntity
  8
PIC06
  6
Continuous
 62
     7
100
AcDbPolyline
 90
       31
 70
     0
 43
0.0
 10
786.6166985081132
 20
699.0839934269412
 42
0.0259107459806529
 10
786.8245699463833
 20
695.8284738569203
 42
0.175588365518459
 10
787.3639305766523
 20
694.7485667108461
 10
787.7379455766523
 20
694.3548667108461
 10
787.7379455766523
 20
694.1186467108462
 10
787.527926651049
 20
694.1186467108462
 10
787.140899456692
 20
694.5260437575378
 42
-0.1745542726644663
 10
786.5117111676688
 20
695.7921532542096
 42
-0.004132713279625
 10
786.4553901095948
 20
696.3149817719568
 42
0.4362235006680913
 10
787.3489327764769
 20
693.6331404589687
 42
-0.1940637552100273
 10
787.6738917025266
 20
693.2918767108461
 10
787.7379455766523
 20
693.2918767108461
 10
787.7379455766523
 20
692.9769167108462
 10
787.6177188229371
 20
692.9769167108462
 42
-0.3337763798602625
 10
787.3908424316722
 20
693.1473568394064
 42
0.2189233483562387
 10
787.2186366765646
 20
693.3463954015611
 42
-0.2455770844635377
 10
785.9400526959205
 20
694.9847867108462
 42
-0.001587298553994
 10
785.9122839365275
 20
695.1891314655526
 42
-0.1777892156237416
 10
786.3140519191306
 20
696.6824632407715
 42
0.1766762164573175
 10
786.3352496165748
 20
696.7605805867736
 42
-0.018807447457346
 10
786.2222005766524
 20
699.1561217313818
 10
786.2222005766524
 20
700.0635167108462
 42
0.4142135623731007
 10
786.0253505766523
 20
700.2603667108461
 10
785.7300755766524
 20
700.2603667108461
 10
785.7300755766524
 20
700.6540667108461
 10
787.0883405766524
 20
700.6540667108461
 42
-0.414213562373094
 10
787.4033005766524
 20
700.3391067108461
 10
787.4033005766524
 20
699.7463626959428
 42
-0.2840790438404148
 10
787.2291949706911
 20
699.4646539078654
 10
786.6819796694317
 20
699.1910462572358
 42
0.2873118881550465
 10
786.6166985081132
 20
699.0839934269412
  0
LWPOLYLINE
  5
C24
330
1F
100
AcDbEntity
  8
PIC06
  6
Continuous
 62
     7
100
AcDbPolyline
 90
       31
 70
     0
 43
0.0
 10
786.8245699463833
 20
695.8284738569203
 42
0.175588365518459
 10
787.3639305766523
 20
694.7485667108461
 10
787.7379455766523
 20
694.3548667108461
 10
787.7379455766523
 20
694.1186467108462
 10
787.527926651049
 20
694.1186467108462
 10
787.140899456692
 20
694.5260437575378
 42
-0.1745542726644663
 10
786.5117111676688
 20
695.7921532542096
 42
-0.004132713279625
 10
786.4553901095948
 20
696.3149817719568
 42
0.4362235006680913
 10
787.3489327764769
 20
693.6331404589687
 42
-0.1940637552100273
 10
787.6738917025266
 20
693.2918767108461
 10
787.7379455766523
 20
693.2918767108461
 10
787.7379455766523
 20
692.9769167108462
 10
787.6177188229371
 20
692.9769167108462
 42
-0.3337763798602625
 10
787.3908424316722
 20
693.1473568394064
 42
0.2189233483562387
 10
787.2186366765646
 20
693.3463954015611
 42
-0.2455770844635377
 10
785.9400526959205
 20
694.9847867108462
 42
-0.001587298553994
 10
785.9122839365275
 20
695.1891314655526
 42
-0.1777892156237416
 10
786.3140519191306
 20
696.6824632407715
 42
0.1766762164573175
 10
786.3352496165748
 20
696.7605805867736
 42
-0.018807447457346
 10
786.2222005766524
 20
699.1561217313818
 10
786.2222005766524
 20
700.0635167108462
 42
0.4142135623731007
 10
786.0253505766523
 20
700.2603667108461
 10
785.7300755766524
 20
700.2603667108461
 10
785.7300755766524
 20
700.6540667108461
 10
787.0883405766524
 20
700.6540667108461
 42
-0.414213562373094
 10
787.4033005766524
 20
700.3391067108461
 10
787.4033005766524
 20
699.7463626959428
 42
-0.2840790438404148
 10
787.2291949706911
 20
699.4646539078654
 10
786.6819796694317
 20
699.1910462572358
 42
0.2873118881550465
 10
786.6166985081132
 20
699.0839934269412
 42
0.0259107459806529
 10
786.8245699463833
 20
695.8284738569203
  0
LWPOLYLINE
  5
C25
330
1F
100
AcDbEntity
  8
PIC06
  6
Continuous
 62
     7
100
AcDbPolyline
 90
       31
 70
     0
 43
0.0
 10
785.9122839365275
 20
695.1891314655526
 42
-0.1777892156237416
 10
786.3140519191306
 20
696.6824632407715
 42
0.1766762164573175
 10
786.3352496165748
 20
696.7605805867736
 42
-0.018807447457346
 10
786.2222005766524
 20
699.1561217313818
 10
786.2222005766524
 20
700.0635167108462
 42
0.4142135623731007
 10
786.0253505766523
 20
700.2603667108461
 10
785.7300755766524
 20
700.2603667108461
 10
785.7300755766524
 20
700.6540667108461
 10
787.0883405766524
 20
700.6540667108461
 42
-0.414213562373094
 10
787.4033005766524
 20
700.3391067108461
 10
787.4033005766524
 20
699.7463626959428
 42
-0.2840790438404148
 10
787.2291949706911
 20
699.4646539078654
 10
786.6819796694317
 20
699.1910462572358
 42
0.2873118881550465
 10
786.6166985081132
 20
699.0839934269412
 42
0.0259107459806529
 10
786.8245699463833
 20
695.8284738569203
 42
0.175588365518459
 10
787.3639305766523
 20
694.7485667108461
 10
787.7379455766523
 20
694.3548667108461
 10
787.7379455766523
 20
694.1186467108462
 10
787.527926651049
 20
694.1186467108462
 10
787.140899456692
 20
694.5260437575378
 42
-0.1745542726644663
 10
786.5117111676688
 20
695.7921532542096
 42
-0.004132713279625
 10
786.4553901095948
 20
696.3149817719568
 42
0.4362235006680913
 10
787.3489327764769
 20
693.6331404589687
 42
-0.1940637552100273
 10
787.6738917025266
 20
693.2918767108461
 10
787.7379455766523
 20
693.2918767108461
 10
787.7379455766523
 20
692.9769167108462
 10
787.6177188229371
 20
692.9769167108462
 42
-0.3337763798602625
 10
787.3908424316722
 20
693.1473568394064
 42
0.2189233483562387
 10
787.2186366765646
 20
693.3463954015611
 42
-0.2455770844635377
 10
785.9400526959205
 20
694.9847867108462
 42
-0.001587298553994
 10
785.9122839365275
 20
695.1891314655526
  0
LWPOLYLINE
  5
C26
330
1F
100
AcDbEntity
  8
PIC06
  6
Continuous
 62
     7
100
AcDbPolyline
 90
       31
 70
     0
 43
0.0
 10
786.4553901095948
 20
696.3149817719568
 42
0.4362235006680913
 10
787.3489327764769
 20
693.6331404589687
 42
-0.1940637552100273
 10
787.6738917025266
 20
693.2918767108461
 10
787.7379455766523
 20
693.2918767108461
 10
787.7379455766523
 20
692.9769167108462
 10
787.6177188229371
 20
692.9769167108462
 42
-0.3337763798602625
 10
787.3908424316722
 20
693.1473568394064
 42
0.2189233483562387
 10
787.2186366765646
 20
693.3463954015611
 42
-0.2455770844635377
 10
785.9400526959205
 20
694.9847867108462
 42
-0.001587298553994
 10
785.9122839365275
 20
695.1891314655526
 42
-0.1777892156237416
 10
786.3140519191306
 20
696.6824632407715
 42
0.1766762164573175
 10
786.3352496165748
 20
696.7605805867736
 42
-0.018807447457346
 10
786.2222005766524
 20
699.1561217313818
 10
786.2222005766524
 20
700.0635167108462
 42
0.4142135623731007
 10
786.0253505766523
 20
700.2603667108461
 10
785.7300755766524
 20
700.2603667108461
 10
785.7300755766524
 20
700.6540667108461
 10
787.0883405766524
 20
700.6540667108461
 42
-0.414213562373094
 10
787.4033005766524
 20
700.3391067108461
 10
787.4033005766524
 20
699.7463626959428
 42
-0.2840790438404148
 10
787.2291949706911
 20
699.4646539078654
 10
786.6819796694317
 20
699.1910462572358
 42
0.2873118881550465
 10
786.6166985081132
 20
699.0839934269412
 42
0.0259107459806529
 10
786.8245699463833
 20
695.8284738569203
 42
0.175588365518459
 10
787.3639305766523
 20
694.7485667108461
 10
787.7379455766523
 20
694.3548667108461
 10
787.7379455766523
 20
694.1186467108462
 10
787.527926651049
 20
694.1186467108462
 10
787.140899456692
 20
694.5260437575378
 42
-0.1745542726644663
 10
786.5117111676688
 20
695.7921532542096
 42
-0.004132713279625
 10
786.4553901095948
 20
696.3149817719568
  0
LWPOLYLINE
  5
C27
330
1F
100
AcDbEntity
  8
PIC06
  6
Continuous
 62
     7
100
AcDbPolyline
 90
       31
 70
     0
 43
0.0
 10
787.3489327764769
 20
693.6331404589687
 42
-0.1940637552100273
 10
787.6738917025266
 20
693.2918767108461
 10
787.7379455766523
 20
693.2918767108461
 10
787.7379455766523
 20
692.9769167108462
 10
787.6177188229371
 20
692.9769167108462
 42
-0.3337763798602625
 10
787.3908424316722
 20
693.1473568394064
 42
0.2189233483562387
 10
787.2186366765646
 20
693.3463954015611
 42
-0.2455770844635377
 10
785.9400526959205
 20
694.9847867108462
 42
-0.001587298553994
 10
785.9122839365275
 20
695.1891314655526
 42
-0.1777892156237416
 10
786.3140519191306
 20
696.6824632407715
 42
0.1766762164573175
 10
786.3352496165748
 20
696.7605805867736
 42
-0.018807447457346
 10
786.2222005766524
 20
699.1561217313818
 10
786.2222005766524
 20
700.0635167108462
 42
0.4142135623731007
 10
786.0253505766523
 20
700.2603667108461
 10
785.7300755766524
 20
700.2603667108461
 10
785.7300755766524
 20
700.6540667108461
 10
787.0883405766524
 20
700.6540667108461
 42
-0.414213562373094
 10
787.4033005766524
 20
700.3391067108461
 10
787.4033005766524
 20
699.7463626959428
 42
-0.2840790438404148
 10
787.2291949706911
 20
699.4646539078654
 10
786.6819796694317
 20
699.1910462572358
 42
0.2873118881550465
 10
786.6166985081132
 20
699.0839934269412
 42
0.0259107459806529
 10
786.8245699463833
 20
695.8284738569203
 42
0.175588365518459
 10
787.3639305766523
 20
694.7485667108461
 10
787.7379455766523
 20
694.3548667108461
 10
787.7379455766523
 20
694.1186467108462
 10
787.527926651049
 20
694.1186467108462
 10
787.140899456692
 20
694.5260437575378
 42
-0.1745542726644663
 10
786.5117111676688
 20
695.7921532542096
 42
-0.004132713279625
 10
786.4553901095948
 20
696.3149817719568
 42
0.4362235006680913
 10
787.3489327764769
 20
693.6331404589687
  0
LINE
  5
C28
330
1F
100
AcDbEntity
  8
PIC06
  6
Continuous
 62
     7
100
AcDbLine
 10
801.9015216756725
 20
685.6934667108462
 30
0.0
 11
801.9610528540255
 21
685.752997889199
 31
0.0
  0
LINE
  5
C29
330
1F
100
AcDbEntity
  8
PIC06
  6
Continuous
 62
     7
100
AcDbLine
 10
801.734488898546
 20
685.6934667108462
 30
0.0
 11
801.9388048347218
 21
685.8977826470219
 31
0.0
  0
LINE
  5
C2A
330
1F
100
AcDbEntity
  8
PIC06
  6
Continuous
 62
     7
100
AcDbLine
 10
801.5715130012308
 20
685.6975235906574
 30
0.0
 11
801.9165568154182
 21
686.0425674048447
 31
0.0
  0
LINE
  5
C2B
330
1F
100
AcDbEntity
  8
PIC06
  6
Continuous
 62
     7
100
AcDbLine
 10
801.5496015630612
 20
685.8426449296141
 30
0.0
 11
801.8943087961146
 21
686.1873521626676
 31
0.0
  0
LINE
  5
C2C
330
1F
100
AcDbEntity
  8
PIC06
  6
Continuous
 62
     7
100
AcDbLine
 10
801.4468888977079
 20
685.9069650413873
 30
0.0
 11
801.8720607768111
 21
686.3321369204904
 31
0.0
  0
LINE
  5
C2D
330
1F
100
AcDbEntity
  8
PIC06
  6
Continuous
 62
     7
100
AcDbLine
 10
801.3133618721262
 20
685.9404707929321
 30
0.0
 11
801.8498127575073
 21
686.4769216783132
 31
0.0
  0
LINE
  5
C2E
330
1F
100
AcDbEntity
  8
PIC06
  6
Continuous
 62
     7
100
AcDbLine
 10
801.1890091008021
 20
685.9831507987345
 30
0.0
 11
801.4382207340204
 21
686.2323624319529
 31
0.0
  0
LINE
  5
C2F
330
1F
100
AcDbEntity
  8
PIC06
  6
Continuous
 62
     7
100
AcDbLine
 10
801.5508377283438
 20
686.3449794262763
 30
0.0
 11
801.8265140389509
 21
686.6206557368832
 31
0.0
  0
LINE
  5
C30
330
1F
100
AcDbEntity
  8
PIC06
  6
Continuous
 62
     7
100
AcDbLine
 10
801.0728148821387
 20
686.0339893571975
 30
0.0
 11
801.3121646804655
 21
686.2733391555243
 31
0.0
  0
LINE
  5
C31
330
1F
100
AcDbEntity
  8
PIC06
  6
Continuous
 62
     7
100
AcDbLine
 10
801.5276489028849
 20
686.4888233779437
 30
0.0
 11
801.8028045162044
 21
686.7639789912632
 31
0.0
  0
LINE
  5
C32
330
1F
100
AcDbEntity
  8
PIC06
  6
Continuous
 62
     7
100
AcDbLine
 10
800.9643562514684
 20
686.0925635036537
 30
0.0
 11
801.1963749012764
 21
686.3245821534616
 31
0.0
  0
LINE
  5
C33
330
1F
100
AcDbEntity
  8
PIC06
  6
Continuous
 62
     7
100
AcDbLine
 10
801.504460077426
 20
686.6326673296112
 30
0.0
 11
801.779094993458
 21
686.9073022456433
 31
0.0
  0
LINE
  5
C34
330
1F
100
AcDbEntity
  8
PIC06
  6
Continuous
 62
     7
100
AcDbLine
 10
800.8626438966576
 20
686.1578839259695
 30
0.0
 11
801.0897338568208
 21
686.3849738861325
 31
0.0
  0
LINE
  5
C35
330
1F
100
AcDbEntity
  8
PIC06
  6
Continuous
 62
     7
100
AcDbLine
 10
801.4812712519669
 20
686.7765112812787
 30
0.0
 11
801.7553854707117
 21
687.0506255000233
 31
0.0
  0
LINE
  5
C36
330
1F
100
AcDbEntity
  8
PIC06
  6
Continuous
 62
     7
100
AcDbLine
 10
800.7672887796319
 20
686.2295615860702
 30
0.0
 11
800.9915187662095
 21
686.4537915726475
 31
0.0
  0
LINE
  5
C37
330
1F
100
AcDbEntity
  8
PIC06
  6
Continuous
 62
     7
100
AcDbLine
 10
801.4580824265079
 20
686.9203552329461
 30
0.0
 11
801.7316759479651
 21
687.1939487544032
 31
0.0
  0
LINE
  5
C38
330
1F
100
AcDbEntity
  8
PIC06
  6
Continuous
 62
     7
100
AcDbLine
 10
800.6786255056901
 20
686.3079310892548
 30
0.0
 11
800.901305229582
 21
686.5306108131465
 31
0.0
  0
LINE
  5
C39
330
1F
100
AcDbEntity
  8
PIC06
  6
Continuous
 62
     7
100
AcDbLine
 10
801.4348175081748
 20
687.0641230917394
 30
0.0
 11
801.7079664252188
 21
687.3372720087834
 31
0.0
  0
LINE
  5
C3A
330
1F
100
AcDbEntity
  8
PIC06
  6
Continuous
 62
     7
100
AcDbLine
 10
800.5961696141525
 20
686.3925079748437
 30
0.0
 11
800.8189839030823
 21
686.6153222637733
 31
0.0
  0
LINE
  5
C3B
330
1F
100
AcDbEntity
  8
PIC06
  6
Continuous
 62
     7
100
AcDbLine
 10
801.4101249640285
 20
687.2064633247195
 30
0.0
 11
801.6829567291614
 21
687.4792950898526
 31
0.0
  0
LINE
  5
C3C
330
1F
100
AcDbEntity
  8
PIC06
  6
Continuous
 62
     7
100
AcDbLine
 10
800.5197622637959
 20
686.4831334016136
 30
0.0
 11
800.7447078894477
 21
686.7080790272654
 31
0.0
  0
LINE
  5
C3D
330
1F
100
AcDbEntity
  8
PIC06
  6
Continuous
 62
     7
100
AcDbLine
 10
801.3854324198817
 20
687.3488035576993
 30
0.0
 11
801.6579192881305
 21
687.6212904259482
 31
0.0
  0
LINE
  5
C3E
330
1F
100
AcDbEntity
  8
PIC06
  6
Continuous
 62
     7
100
AcDbLine
 10
800.4500736805431
 20
686.580477595487
 30
0.0
 11
800.678534057544
 21
686.808937972488
 31
0.0
  0
LINE
  5
C3F
330
1F
100
AcDbEntity
  8
PIC06
  6
Continuous
 62
     7
100
AcDbLine
 10
801.3607398757354
 20
687.4911437906793
 30
0.0
 11
801.6328818470999
 21
687.7632857620437
 31
0.0
  0
LINE
  5
C40
330
1F
100
AcDbEntity
  8
PIC06
  6
Continuous
 62
     7
100
AcDbLine
 10
800.3870318872515
 20
686.6844685793219
 30
0.0
 11
800.6209703335624
 21
686.9184070256327
 31
0.0
  0
LINE
  5
C41
330
1F
100
AcDbEntity
  8
PIC06
  6
Continuous
 62
     7
100
AcDbLine
 10
801.3360473315888
 20
687.6334840236593
 30
0.0
 11
801.6078444060688
 21
687.9052810981394
 31
0.0
  0
LINE
  5
C42
330
1F
100
AcDbEntity
  8
PIC06
  6
Continuous
 62
     7
100
AcDbLine
 10
800.3308844299759
 20
686.7953538991729
 30
0.0
 11
800.5728458006226
 21
687.0373152698195
 31
0.0
  0
LINE
  5
C43
330
1F
100
AcDbEntity
  8
PIC06
  6
Continuous
 62
     7
100
AcDbLine
 10
801.3113547874421
 20
687.7758242566392
 30
0.0
 11
801.582806965038
 21
688.047276434235
 31
0.0
  0
LINE
  5
C44
330
1F
100
AcDbEntity
  8
PIC06
  6
Continuous
 62
     7
100
AcDbLine
 10
800.2822788969238
 20
686.9137811432472
 30
0.0
 11
800.5354242935856
 21
687.166926539909
 31
0.0
  0
LINE
  5
C45
330
1F
100
AcDbEntity
  8
PIC06
  6
Continuous
 62
     7
100
AcDbLine
 10
801.2865653942212
 20
687.9180676405444
 30
0.0
 11
801.5575129631772
 21
688.1890152095005
 31
0.0
  0
LINE
  5
C46
330
1F
100
AcDbEntity
  8
PIC06
  6
Continuous
 62
     7
100
AcDbLine
 10
800.2423350176286
 20
687.0408700410784
 30
0.0
 11
800.5111865836212
 21
687.3097216070712
 31
0.0
  0
LINE
  5
C47
330
1F
100
AcDbEntity
  8
PIC06
  6
Continuous
 62
     7
100
AcDbLine
 10
801.2605070745767
 20
688.0590420980265
 30
0.0
 11
801.53116715249
 21
688.3297021759399
 31
0.0
  0
LINE
  5
C48
330
1F
100
AcDbEntity
  8
PIC06
  6
Continuous
 62
     7
100
AcDbLine
 10
800.2120715627954
 20
687.1776393633718
 30
0.0
 11
800.4926614318986
 21
687.458229232475
 31
0.0
  0
LINE
  5
C49
330
1F
100
AcDbEntity
  8
PIC06
  6
Continuous
 62
     7
100
AcDbLine
 10
801.2344487549324
 20
688.2000165555085
 30
0.0
 11
801.504821341803
 21
688.4703891423793
 31
0.0
  0
LINE
  5
C4A
330
1F
100
AcDbEntity
  8
PIC06
  6
Continuous
 62
     7
100
AcDbLine
 10
800.1919373433207
 20
687.3245379210234
 30
0.0
 11
800.4741362801759
 21
687.6067368578786
 31
0.0
  0
LINE
  5
C4B
330
1F
100
AcDbEntity
  8
PIC06
  6
Continuous
 62
     7
100
AcDbLine
 10
801.2083904352879
 20
688.3409910129906
 30
0.0
 11
801.4784755311159
 21
688.6110761088188
 31
0.0
  0
LINE
  5
C4C
330
1F
100
AcDbEntity
  8
PIC06
  6
Continuous
 62
     7
100
AcDbLine
 10
800.1734121915978
 20
687.4730455464271
 30
0.0
 11
800.4556111284532
 21
687.7552444832824
 31
0.0
  0
LINE
  5
C4D
330
1F
100
AcDbEntity
  8
PIC06
  6
Continuous
 62
     7
100
AcDbLine
 10
801.1823321156434
 20
688.4819654704727
 30
0.0
 11
801.4521297204289
 21
688.7517630752581
 31
0.0
  0
LINE
  5
C4E
330
1F
100
AcDbEntity
  8
PIC06
  6
Continuous
 62
     7
100
AcDbLine
 10
800.1548870398751
 20
687.6215531718308
 30
0.0
 11
800.4370859767306
 21
687.9037521086862
 31
0.0
  0
LINE
  5
C4F
330
1F
100
AcDbEntity
  8
PIC06
  6
Continuous
 62
     7
100
AcDbLine
 10
801.1562737959989
 20
688.6229399279547
 30
0.0
 11
801.4257839097419
 21
688.8924500416975
 31
0.0
  0
LINE
  5
C50
330
1F
100
AcDbEntity
  8
PIC06
  6
Continuous
 62
     7
100
AcDbLine
 10
800.1363618881525
 20
687.7700607972347
 30
0.0
 11
800.4185608250079
 21
688.0522597340899
 31
0.0
  0
LINE
  5
C51
330
1F
100
AcDbEntity
  8
PIC06
  6
Continuous
 62
     7
100
AcDbLine
 10
801.1301546842856
 20
688.7638535933677
 30
0.0
 11
801.3989602973806
 21
689.0326592064627
 31
0.0
  0
LINE
  5
C52
330
1F
100
AcDbEntity
  8
PIC06
  6
Continuous
 62
     7
100
AcDbLine
 10
800.1178367364298
 20
687.9185684226383
 30
0.0
 11
800.4000356732852
 21
688.2007673594937
 31
0.0
  0
LINE
  5
C53
330
1F
100
AcDbEntity
  8
PIC06
  6
Continuous
 62
     7
100
AcDbLine
 10
801.1027511345712
 20
688.9034828207798
 30
0.0
 11
801.371324950057
 21
689.1720566362656
 31
0.0
  0
LINE
  5
C54
330
1F
100
AcDbEntity
  8
PIC06
  6
Continuous
 62
     7
100
AcDbLine
 10
800.0993115847071
 20
688.0670760480422
 30
0.0
 11
800.3815105215625
 21
688.3492749848975
 31
0.0
  0
LINE
  5
C55
330
1F
100
AcDbEntity
  8
PIC06
  6
Continuous
 62
     7
100
AcDbLine
 10
801.075347584857
 20
689.0431120481921
 30
0.0
 11
801.3436896027334
 21
689.3114540660685
 31
0.0
  0
LINE
  5
C56
330
1F
100
AcDbEntity
  8
PIC06
  6
Continuous
 62
     7
100
AcDbLine
 10
800.0807864329843
 20
688.2155836734459
 30
0.0
 11
800.3629853698397
 21
688.4977826103011
 31
0.0
  0
LINE
  5
C57
330
1F
100
AcDbEntity
  8
PIC06
  6
Continuous
 62
     7
100
AcDbLine
 10
801.0479440351428
 20
689.1827412756042
 30
0.0
 11
801.31605425541
 21
689.4508514958714
 31
0.0
  0
LINE
  5
C58
330
1F
100
AcDbEntity
  8
PIC06
  6
Continuous
 62
     7
100
AcDbLine
 10
800.0622612812616
 20
688.3640912988497
 30
0.0
 11
800.344460218117
 21
688.646290235705
 31
0.0
  0
LINE
  5
C59
330
1F
100
AcDbEntity
  8
PIC06
  6
Continuous
 62
     7
100
AcDbLine
 10
801.0205404854284
 20
689.3223705030164
 30
0.0
 11
801.2884189080862
 21
689.5902489256743
 31
0.0
  0
LINE
  5
C5A
330
1F
100
AcDbEntity
  8
PIC06
  6
Continuous
 62
     7
100
AcDbLine
 10
800.0437361295391
 20
688.5125989242534
 30
0.0
 11
800.3259350663944
 21
688.7947978611087
 31
0.0
  0
LINE
  5
C5B
330
1F
100
AcDbEntity
  8
PIC06
  6
Continuous
 62
     7
100
AcDbLine
 10
800.9931369357142
 20
689.4619997304285
 30
0.0
 11
801.2607835607628
 21
689.7296463554771
 31
0.0
  0
LINE
  5
C5C
330
1F
100
AcDbEntity
  8
PIC06
  6
Continuous
 62
     7
100
AcDbLine
 10
800.0252109778163
 20
688.6611065496572
 30
0.0
 11
800.3074099146717
 21
688.9433054865125
 31
0.0
  0
LINE
  5
C5D
330
1F
100
AcDbEntity
  8
PIC06
  6
Continuous
 62
     7
100
AcDbLine
 10
800.9657333859999
 20
689.6016289578406
 30
0.0
 11
801.2325086409573
 21
689.8684042127982
 31
0.0
  0
LINE
  5
C5E
330
1F
100
AcDbEntity
  8
PIC06
  6
Continuous
 62
     7
100
AcDbLine
 10
800.0066858260936
 20
688.8096141750609
 30
0.0
 11
800.288884762949
 21
689.0918131119162
 31
0.0
  0
LINE
  5
C5F
330
1F
100
AcDbEntity
  8
PIC06
  6
Continuous
 62
     7
100
AcDbLine
 10
800.9370386057101
 20
689.7399669546776
 30
0.0
 11
801.2036019031931
 21
690.0065302521604
 31
0.0
  0
LINE
  5
C60
330
1F
100
AcDbEntity
  8
PIC06
  6
Continuous
 62
     7
100
AcDbLine
 10
799.9881606743708
 20
688.9581218004646
 30
0.0
 11
800.2703596112262
 21
689.2403207373201
 31
0.0
  0
LINE
  5
C61
330
1F
100
AcDbEntity
  8
PIC06
  6
Continuous
 62
     7
100
AcDbLine
 10
800.9083095919875
 20
689.8782707180814
 30
0.0
 11
801.174695165429
 21
690.1446562915229
 31
0.0
  0
LINE
  5
C62
330
1F
100
AcDbEntity
  8
PIC06
  6
Continuous
 62
     7
100
AcDbLine
 10
799.9696355226482
 20
689.1066294258685
 30
0.0
 11
800.2518344595035
 21
689.3888283627237
 31
0.0
  0
LINE
  5
C63
330
1F
100
AcDbEntity
  8
PIC06
  6
Continuous
 62
     7
100
AcDbLine
 10
800.8795805782648
 20
690.0165744814851
 30
0.0
 11
801.145788427665
 21
690.2827823308852
 31
0.0
  0
LINE
  5
C64
330
1F
100
AcDbEntity
  8
PIC06
  6
Continuous
 62
     7
100
AcDbLine
 10
799.9511103709255
 20
689.2551370512721
 30
0.0
 11
800.2333093077808
 21
689.5373359881276
 31
0.0
  0
LINE
  5
C65
330
1F
100
AcDbEntity
  8
PIC06
  6
Continuous
 62
     7
100
AcDbLine
 10
800.8508515645422
 20
690.1548782448888
 30
0.0
 11
801.1168816899008
 21
690.4209083702475
 31
0.0
  0
LINE
  5
C66
330
1F
100
AcDbEntity
  8
PIC06
  6
Continuous
 62
     7
100
AcDbLine
 10
799.9325852192027
 20
689.403644676676
 30
0.0
 11
800.2147841560582
 21
689.6858436135313
 31
0.0
  0
LINE
  5
C67
330
1F
100
AcDbEntity
  8
PIC06
  6
Continuous
 62
     7
100
AcDbLine
 10
800.8221225508194
 20
690.2931820082926
 30
0.0
 11
801.0879749521368
 21
690.5590344096099
 31
0.0
  0
LINE
  5
C68
330
1F
100
AcDbEntity
  8
PIC06
  6
Continuous
 62
     7
100
AcDbLine
 10
799.9140600674801
 20
689.5521523020797
 30
0.0
 11
800.1962590043355
 21
689.834351238935
 31
0.0
  0
LINE
  5
C69
330
1F
100
AcDbEntity
  8
PIC06
  6
Continuous
 62
     7
100
AcDbLine
 10
800.7933935370967
 20
690.4314857716963
 30
0.0
 11
801.0583229780777
 21
690.6964152126773
 31
0.0
  0
LINE
  5
C6A
330
1F
100
AcDbEntity
  8
PIC06
  6
Continuous
 62
     7
100
AcDbLine
 10
799.8955349157575
 20
689.7006599274834
 30
0.0
 11
800.1777338526128
 21
689.9828588643388
 31
0.0
  0
LINE
  5
C6B
330
1F
100
AcDbEntity
  8
PIC06
  6
Continuous
 62
     7
100
AcDbLine
 10
800.7635428187525
 20
690.5686678304785
 30
0.0
 11
801.0281623364697
 21
690.8332873481957
 31
0.0
  0
LINE
  5
C6C
330
1F
100
AcDbEntity
  8
PIC06
  6
Continuous
 62
     7
100
AcDbLine
 10
799.8770097640346
 20
689.8491675528872
 30
0.0
 11
800.15920870089
 21
690.1313664897426
 31
0.0
  0
LINE
  5
C6D
330
1F
100
AcDbEntity
  8
PIC06
  6
Continuous
 62
     7
100
AcDbLine
 10
800.7335073599103
 20
690.7056651487627
 30
0.0
 11
800.9980016948617
 21
690.9701594837143
 31
0.0
  0
LINE
  5
C6E
330
1F
100
AcDbEntity
  8
PIC06
  6
Continuous
 62
     7
100
AcDbLine
 10
799.8584846123121
 20
689.997675178291
 30
0.0
 11
800.1406835491675
 21
690.2798741151463
 31
0.0
  0
LINE
  5
C6F
330
1F
100
AcDbEntity
  8
PIC06
  6
Continuous
 62
     7
100
AcDbLine
 10
800.7034719010681
 20
690.8426624670469
 30
0.0
 11
800.9678410532538
 21
691.1070316192327
 31
0.0
  0
LINE
  5
C70
330
1F
100
AcDbEntity
  8
PIC06
  6
Continuous
 62
     7
100
AcDbLine
 10
799.8399594605894
 20
690.1461828036947
 30
0.0
 11
800.1221583974446
 21
690.4283817405501
 31
0.0
  0
LINE
  5
C71
330
1F
100
AcDbEntity
  8
PIC06
  6
Continuous
 62
     7
100
AcDbLine
 10
800.6734364422257
 20
690.9796597853311
 30
0.0
 11
800.9376804116456
 21
691.2439037547511
 31
0.0
  0
LINE
  5
C72
330
1F
100
AcDbEntity
  8
PIC06
  6
Continuous
 62
     7
100
AcDbLine
 10
799.8214343088666
 20
690.2946904290985
 30
0.0
 11
800.103633245722
 21
690.5768893659539
 31
0.0
  0
LINE
  5
C73
330
1F
100
AcDbEntity
  8
PIC06
  6
Continuous
 62
     7
100
AcDbLine
 10
800.6434009833835
 20
691.1166571036152
 30
0.0
 11
800.9075197700376
 21
691.3807758902695
 31
0.0
  0
LINE
  5
C74
330
1F
100
AcDbEntity
  8
PIC06
  6
Continuous
 62
     7
100
AcDbLine
 10
799.8029091571439
 20
690.4431980545023
 30
0.0
 11
800.0851080939993
 21
690.7253969913575
 31
0.0
  0
LINE
  5
C75
330
1F
100
AcDbEntity
  8
PIC06
  6
Continuous
 62
     7
100
AcDbLine
 10
800.6133655245411
 20
691.2536544218994
 30
0.0
 11
800.87656118795
 21
691.5168500853082
 31
0.0
  0
LINE
  5
C76
330
1F
100
AcDbEntity
  8
PIC06
  6
Continuous
 62
     7
100
AcDbLine
 10
799.7843840054212
 20
690.591705679906
 30
0.0
 11
800.0665829422766
 21
690.8739046167613
 31
0.0
  0
LINE
  5
C77
330
1F
100
AcDbEntity
  8
PIC06
  6
Continuous
 62
     7
100
AcDbLine
 10
800.5824294033981
 20
691.389751077883
 30
0.0
 11
800.8451634952553
 21
691.6524851697402
 31
0.0
  0
LINE
  5
C78
330
1F
100
AcDbEntity
  8
PIC06
  6
Continuous
 62
     7
100
AcDbLine
 10
799.7658588536985
 20
690.7402133053097
 30
0.0
 11
800.0480577905539
 21
691.0224122421651
 31
0.0
  0
LINE
  5
C79
330
1F
100
AcDbEntity
  8
PIC06
  6
Continuous
 62
     7
100
AcDbLine
 10
800.5511058015452
 20
691.5254602531564
 30
0.0
 11
800.813765802561
 21
691.7881202541722
 31
0.0
  0
LINE
  5
C7A
330
1F
100
AcDbEntity
  8
PIC06
  6
Continuous
 62
     7
100
AcDbLine
 10
799.7473337019759
 20
690.8887209307136
 30
0.0
 11
800.0295326388311
 21
691.1709198675688
 31
0.0
  0
LINE
  5
C7B
330
1F
100
AcDbEntity
  8
PIC06
  6
Continuous
 62
     7
100
AcDbLine
 10
800.5197821996921
 20
691.6611694284299
 30
0.0
 11
800.7823681098665
 21
691.9237553386042
 31
0.0
  0
LINE
  5
C7C
330
1F
100
AcDbEntity
  8
PIC06
  6
Continuous
 62
     7
100
AcDbLine
 10
799.7288085502531
 20
691.0372285561172
 30
0.0
 11
800.0110074871084
 21
691.3194274929726
 31
0.0
  0
LINE
  5
C7D
330
1F
100
AcDbEntity
  8
PIC06
  6
Continuous
 62
     7
100
AcDbLine
 10
800.4884585978391
 20
691.7968786037032
 30
0.0
 11
800.750970417172
 21
692.0593904230361
 31
0.0
  0
LINE
  5
C7E
330
1F
100
AcDbEntity
  8
PIC06
  6
Continuous
 62
     7
100
AcDbLine
 10
799.7102833985304
 20
691.1857361815211
 30
0.0
 11
799.9924823353858
 21
691.4679351183764
 31
0.0
  0
LINE
  5
C7F
330
1F
100
AcDbEntity
  8
PIC06
  6
Continuous
 62
     7
100
AcDbLine
 10
800.457134995986
 20
691.9325877789766
 30
0.0
 11
800.7195727244775
 21
692.1950255074681
 31
0.0
  0
LINE
  5
C80
330
1F
100
AcDbEntity
  8
PIC06
  6
Continuous
 62
     7
100
AcDbLine
 10
799.6917582468077
 20
691.3342438069248
 30
0.0
 11
799.973957183663
 21
691.61644274378
 31
0.0
  0
LINE
  5
C81
330
1F
100
AcDbEntity
  8
PIC06
  6
Continuous
 62
     7
100
AcDbLine
 10
800.4258113941329
 20
692.06829695425
 30
0.0
 11
800.6873081498872
 21
692.3297937100044
 31
0.0
  0
LINE
  5
C82
330
1F
100
AcDbEntity
  8
PIC06
  6
Continuous
 62
     7
100
AcDbLine
 10
799.673233095085
 20
691.4827514323285
 30
0.0
 11
799.9554320319404
 21
691.7649503691839
 31
0.0
  0
LINE
  5
C83
330
1F
100
AcDbEntity
  8
PIC06
  6
Continuous
 62
     7
100
AcDbLine
 10
800.3938044832615
 20
692.203322820505
 30
0.0
 11
800.6545886306849
 21
692.4641069679284
 31
0.0
  0
LINE
  5
C84
330
1F
100
AcDbEntity
  8
PIC06
  6
Continuous
 62
     7
100
AcDbLine
 10
799.6547079433623
 20
691.6312590577323
 30
0.0
 11
799.9369068802176
 21
691.9134579945876
 31
0.0
  0
LINE
  5
C85
330
1F
100
AcDbEntity
  8
PIC06
  6
Continuous
 62
     7
100
AcDbLine
 10
800.3611052498563
 20
692.3376563642264
 30
0.0
 11
800.6218691114828
 21
692.5984202258526
 31
0.0
  0
LINE
  5
C86
330
1F
100
AcDbEntity
  8
PIC06
  6
Continuous
 62
     7
100
AcDbLine
 10
799.6361827916396
 20
691.7797666831361
 30
0.0
 11
799.918381728495
 21
692.0619656199914
 31
0.0
  0
LINE
  5
C87
330
1F
100
AcDbEntity
  8
PIC06
  6
Continuous
 62
     7
100
AcDbLine
 10
800.3284060164512
 20
692.4719899079477
 30
0.0
 11
800.5891495922805
 21
692.7327334837769
 31
0.0
  0
LINE
  5
C88
330
1F
100
AcDbEntity
  8
PIC06
  6
Continuous
 62
     7
100
AcDbLine
 10
799.6176576399169
 20
691.9282743085398
 30
0.0
 11
799.8998565767723
 21
692.2104732453951
 31
0.0
  0
LINE
  5
C89
330
1F
100
AcDbEntity
  8
PIC06
  6
Continuous
 62
     7
100
AcDbLine
 10
800.2957067830461
 20
692.6063234516689
 30
0.0
 11
800.5564300730782
 21
692.8670467417011
 31
0.0
  0
LINE
  5
C8A
330
1F
100
AcDbEntity
  8
PIC06
  6
Continuous
 62
     7
100
AcDbLine
 10
799.5991324881942
 20
692.0767819339435
 30
0.0
 11
799.8813314250496
 21
692.358980870799
 31
0.0
  0
LINE
  5
C8B
330
1F
100
AcDbEntity
  8
PIC06
  6
Continuous
 62
     7
100
AcDbLine
 10
800.2630075496409
 20
692.7406569953903
 30
0.0
 11
800.5237105538759
 21
693.0013599996252
 31
0.0
  0
LINE
  5
C8C
330
1F
100
AcDbEntity
  8
PIC06
  6
Continuous
 62
     7
100
AcDbLine
 10
799.5806073364715
 20
692.2252895593474
 30
0.0
 11
799.8628062733269
 21
692.5074884962026
 31
0.0
  0
LINE
  5
C8D
330
1F
100
AcDbEntity
  8
PIC06
  6
Continuous
 62
     7
100
AcDbLine
 10
800.2303083162358
 20
692.8749905391115
 30
0.0
 11
800.4914825786833
 21
693.1361648015592
 31
0.0
  0
LINE
  5
C8E
330
1F
100
AcDbEntity
  8
PIC06
  6
Continuous
 62
     7
100
AcDbLine
 10
799.5620821847487
 20
692.373797184751
 30
0.0
 11
799.8442811216041
 21
692.6559961216064
 31
0.0
  0
LINE
  5
C8F
330
1F
100
AcDbEntity
  8
PIC06
  6
Continuous
 62
     7
100
AcDbLine
 10
800.1977997248964
 20
693.0095147248986
 30
0.0
 11
800.4628473616065
 21
693.2745623616088
 31
0.0
  0
LINE
  5
C90
330
1F
100
AcDbEntity
  8
PIC06
  6
Continuous
 62
     7
100
AcDbLine
 10
799.543557033026
 20
692.5223048101549
 30
0.0
 11
799.8257559698815
 21
692.8045037470102
 31
0.0
  0
LINE
  5
C91
330
1F
100
AcDbEntity
  8
PIC06
  6
Continuous
 62
     7
100
AcDbLine
 10
800.1673147535523
 20
693.1460625306812
 30
0.0
 11
800.4389091017502
 21
693.4176568788789
 31
0.0
  0
LINE
  5
C92
330
1F
100
AcDbEntity
  8
PIC06
  6
Continuous
 62
     7
100
AcDbLine
 10
799.5250318813035
 20
692.6708124355586
 30
0.0
 11
799.8072308181588
 21
692.9530113724139
 31
0.0
  0
LINE
  5
C93
330
1F
100
AcDbEntity
  8
PIC06
  6
Continuous
 62
     7
100
AcDbLine
 10
800.1408291598977
 20
693.286609714153
 30
0.0
 11
800.419428440942
 21
693.5652089951973
 31
0.0
  0
LINE
  5
C94
330
1F
100
AcDbEntity
  8
PIC06
  6
Continuous
 62
     7
100
AcDbLine
 10
799.5065067295806
 20
692.8193200609623
 30
0.0
 11
799.788705666436
 21
693.1015189978177
 31
0.0
  0
LINE
  5
C95
330
1F
100
AcDbEntity
  8
PIC06
  6
Continuous
 62
     7
100
AcDbLine
 10
800.1185048986881
 20
693.4313182300698
 30
0.0
 11
800.4056081769304
 21
693.7184215083119
 31
0.0
  0
LINE
  5
C96
330
1F
100
AcDbEntity
  8
PIC06
  6
Continuous
 62
     7
100
AcDbLine
 10
799.487981577858
 20
692.9678276863661
 30
0.0
 11
799.7701805147134
 21
693.2500266232215
 31
0.0
  0
LINE
  5
C97
330
1F
100
AcDbEntity
  8
PIC06
  6
Continuous
 62
     7
100
AcDbLine
 10
800.1012704395057
 20
693.5811165480138
 30
0.0
 11
800.3972879297769
 21
693.8771340382851
 31
0.0
  0
LINE
  5
C98
330
1F
100
AcDbEntity
  8
PIC06
  6
Continuous
 62
     7
100
AcDbLine
 10
799.4694564261354
 20
693.1163353117699
 30
0.0
 11
799.7516553629907
 21
693.3985342486252
 31
0.0
  0
LINE
  5
C99
330
1F
100
AcDbEntity
  8
PIC06
  6
Continuous
 62
     7
100
AcDbLine
 10
800.0887703600668
 20
693.7356492457012
 30
0.0
 11
800.3961835077415
 21
694.043062393376
 31
0.0
  0
LINE
  5
C9A
330
1F
100
AcDbEntity
  8
PIC06
  6
Continuous
 62
     7
100
AcDbLine
 10
802.5772122577722
 20
696.2240911434068
 30
0.0
 11
804.1622953646173
 21
697.8091742502519
 31
0.0
  0
LINE
  5
C9B
330
1F
100
AcDbEntity
  8
PIC06
  6
Continuous
 62
     7
100
AcDbLine
 10
799.4509312744126
 20
693.2648429371736
 30
0.0
 11
799.7331302112679
 21
693.547041874029
 31
0.0
  0
LINE
  5
C9C
330
1F
100
AcDbEntity
  8
PIC06
  6
Continuous
 62
     7
100
AcDbLine
 10
800.0816236677001
 20
693.8955353304613
 30
0.0
 11
800.4115781312945
 21
694.2254897940555
 31
0.0
  0
LINE
  5
C9D
330
1F
100
AcDbEntity
  8
PIC06
  6
Continuous
 62
     7
100
AcDbLine
 10
802.0308376734059
 20
695.8447493361668
 30
0.0
 11
804.4465459825925
 21
698.2604576453536
 31
0.0
  0
LINE
  5
C9E
330
1F
100
AcDbEntity
  8
PIC06
  6
Continuous
 62
     7
100
AcDbLine
 10
799.4324061226899
 20
693.4133505625774
 30
0.0
 11
799.7146050595453
 21
693.6955494994328
 31
0.0
  0
LINE
  5
C9F
330
1F
100
AcDbEntity
  8
PIC06
  6
Continuous
 62
     7
100
AcDbLine
 10
800.0814986426933
 20
694.0624430825807
 30
0.0
 11
800.45767038171
 21
694.4386148215975
 31
0.0
  0
LINE
  5
CA0
330
1F
100
AcDbEntity
  8
PIC06
  6
Continuous
 62
     7
100
AcDbLine
 10
801.6133963988519
 20
695.5943408387392
 30
0.0
 11
804.626359884755
 21
698.6073043246425
 31
0.0
  0
LINE
  5
CA1
330
1F
100
AcDbEntity
  8
PIC06
  6
Continuous
 62
     7
100
AcDbLine
 10
799.4138809709673
 20
693.5618581879812
 30
0.0
 11
799.6960799078225
 21
693.8440571248364
 31
0.0
  0
LINE
  5
CA2
330
1F
100
AcDbEntity
  8
PIC06
  6
Continuous
 62
     7
100
AcDbLine
 10
800.096143721284
 20
694.2441209382979
 30
0.0
 11
800.5667741675127
 21
694.7147513845266
 31
0.0
  0
LINE
  5
CA3
330
1F
100
AcDbEntity
  8
PIC06
  6
Continuous
 62
     7
100
AcDbLine
 10
801.2559324070164
 20
695.4039096240302
 30
0.0
 11
802.5694422887402
 21
696.7174195057541
 31
0.0
  0
LINE
  5
CA4
330
1F
100
AcDbEntity
  8
PIC06
  6
Continuous
 62
     7
100
AcDbLine
 10
803.7108659588756
 20
697.8588431758896
 30
0.0
 11
804.7574280709874
 21
698.9054052880013
 31
0.0
  0
LINE
  5
CA5
330
1F
100
AcDbEntity
  8
PIC06
  6
Continuous
 62
     7
100
AcDbLine
 10
799.3953558192445
 20
693.7103658133849
 30
0.0
 11
799.6775547560998
 21
693.9925647502402
 31
0.0
  0
LINE
  5
CA6
330
1F
100
AcDbEntity
  8
PIC06
  6
Continuous
 62
     7
100
AcDbLine
 10
800.1344831650072
 20
694.4494931591476
 30
0.0
 11
801.9486699677987
 21
696.263679961939
 31
0.0
  0
LINE
  5
CA7
330
1F
100
AcDbEntity
  8
PIC06
  6
Continuous
 62
     7
100
AcDbLine
 10
804.0558837320871
 20
698.3708937262275
 30
0.0
 11
804.8570638325005
 21
699.172073826641
 31
0.0
  0
LINE
  5
CA8
330
1F
100
AcDbEntity
  8
PIC06
  6
Continuous
 62
     7
100
AcDbLine
 10
799.3768306675218
 20
693.8588734387886
 30
0.0
 11
799.6590296043771
 21
694.141072375644
 31
0.0
  0
LINE
  5
CA9
330
1F
100
AcDbEntity
  8
PIC06
  6
Continuous
 62
     7
100
AcDbLine
 10
800.2124048282647
 20
694.6944475995315
 30
0.0
 11
801.5707474664825
 21
696.0527902377493
 31
0.0
  0
LINE
  5
CAA
330
1F
100
AcDbEntity
  8
PIC06
  6
Continuous
 62
     7
100
AcDbLine
 10
804.2490774603722
 20
698.7311202316391
 30
0.0
 11
804.9353366361748
 21
699.4173794074415
 31
0.0
  0
LINE
  5
CAB
330
1F
100
AcDbEntity
  8
PIC06
  6
Continuous
 62
     7
100
AcDbLine
 10
799.3583055157991
 20
694.0073810641925
 30
0.0
 11
799.6405044526544
 21
694.2895800010477
 31
0.0
  0
LINE
  5
CAC
330
1F
100
AcDbEntity
  8
PIC06
  6
Continuous
 62
     7
100
AcDbLine
 10
800.3942181024488
 20
695.0432936508421
 30
0.0
 11
801.2733997217182
 21
695.9224752701114
 31
0.0
  0
LINE
  5
CAD
330
1F
100
AcDbEntity
  8
PIC06
  6
Continuous
 62
     7
100
AcDbLine
 10
804.3831687611268
 20
699.0322443095201
 30
0.0
 11
804.9971698610413
 21
699.6462454094348
 31
0.0
  0
LINE
  5
CAE
330
1F
100
AcDbEntity
  8
PIC06
  6
Continuous
 62
     7
100
AcDbLine
 10
799.3397803640764
 20
694.1558886895961
 30
0.0
 11
799.6219793009317
 21
694.4380876264515
 31
0.0
  0
LINE
  5
CAF
330
1F
100
AcDbEntity
  8
PIC06
  6
Continuous
 62
     7
100
AcDbLine
 10
800.5887471338141
 20
695.4048554593339
 30
0.0
 11
801.0166236418845
 21
695.8327319674043
 31
0.0
  0
LINE
  5
CB0
330
1F
100
AcDbEntity
  8
PIC06
  6
Continuous
 62
     7
100
AcDbLine
 10
804.3449690374158
 20
699.1610773629355
 30
0.0
 11
804.567816637814
 21
699.3839249633337
 31
0.0
  0
LINE
  5
CB1
330
1F
100
AcDbEntity
  8
PIC06
  6
Continuous
 62
     7
100
AcDbLine
 10
804.6079288414947
 20
699.4240371670144
 30
0.0
 11
805.0456328256114
 21
699.8617411511312
 31
0.0
  0
LINE
  5
CB2
330
1F
100
AcDbEntity
  8
PIC06
  6
Continuous
 62
     7
100
AcDbLine
 10
799.3212552123537
 20
694.304396315
 30
0.0
 11
799.6034541492091
 21
694.5865952518553
 31
0.0
  0
LINE
  5
CB3
330
1F
100
AcDbEntity
  8
PIC06
  6
Continuous
 62
     7
100
AcDbLine
 10
800.3914883619628
 20
695.3746294646091
 30
0.0
 11
800.785013070363
 21
695.7681541730091
 31
0.0
  0
LINE
  5
CB4
330
1F
100
AcDbEntity
  8
PIC06
  6
Continuous
 62
     7
100
AcDbLine
 10
804.2161730526132
 20
699.1993141552593
 30
0.0
 11
804.4701369309944
 21
699.4532780336405
 31
0.0
  0
LINE
  5
CB5
330
1F
100
AcDbEntity
  8
PIC06
  6
Continuous
 62
     7
100
AcDbLine
 10
804.6749749670684
 20
699.6581160697147
 30
0.0
 11
805.0838187329345
 21
700.0669598355808
 31
0.0
  0
LINE
  5
CB6
330
1F
100
AcDbEntity
  8
PIC06
  6
Continuous
 62
     7
100
AcDbLine
 10
799.302730060631
 20
694.4529039404037
 30
0.0
 11
799.5849289974864
 21
694.7351028772589
 31
0.0
  0
LINE
  5
CB7
330
1F
100
AcDbEntity
  8
PIC06
  6
Continuous
 62
     7
100
AcDbLine
 10
800.202057576536
 20
695.3522314563087
 30
0.0
 11
800.5717859356238
 21
695.7219598153965
 31
0.0
  0
LINE
  5
CB8
330
1F
100
AcDbEntity
  8
PIC06
  6
Continuous
 62
     7
100
AcDbLine
 10
804.0758387110114
 20
699.226012590784
 30
0.0
 11
804.3452019479568
 21
699.4953758277294
 31
0.0
  0
LINE
  5
CB9
330
1F
100
AcDbEntity
  8
PIC06
  6
Continuous
 62
     7
100
AcDbLine
 10
804.7271625956886
 20
699.8773364754614
 30
0.0
 11
805.1124105453617
 21
700.2625844251343
 31
0.0
  0
LINE
  5
CBA
330
1F
100
AcDbEntity
  8
PIC06
  6
Continuous
 62
     7
100
AcDbLine
 10
799.2842049089082
 20
694.6014115658074
 30
0.0
 11
799.5664038457637
 21
694.8836105026628
 31
0.0
  0
LINE
  5
CBB
330
1F
100
AcDbEntity
  8
PIC06
  6
Continuous
 62
     7
100
AcDbLine
 10
800.0133580980413
 20
695.3305647549406
 30
0.0
 11
800.3726356221669
 21
695.6898422790661
 31
0.0
  0
LINE
  5
CBC
330
1F
100
AcDbEntity
  8
PIC06
  6
Continuous
 62
     7
100
AcDbLine
 10
803.9355043694097
 20
699.2527110263088
 30
0.0
 11
804.2048676063551
 21
699.5220742632542
 31
0.0
  0
LINE
  5
CBD
330
1F
100
AcDbEntity
  8
PIC06
  6
Continuous
 62
     7
100
AcDbLine
 10
804.7675516842517
 20
700.0847583411507
 30
0.0
 11
805.1079959191305
 21
700.4252025760296
 31
0.0
  0
LINE
  5
CBE
330
1F
100
AcDbEntity
  8
PIC06
  6
Continuous
 62
     7
100
AcDbLine
 10
799.2656797571854
 20
694.7499191912112
 30
0.0
 11
799.547878694041
 21
695.0321181280665
 31
0.0
  0
LINE
  5
CBF
330
1F
100
AcDbEntity
  8
PIC06
  6
Continuous
 62
     7
100
AcDbLine
 10
799.8248888480047
 20
695.3091282820301
 30
0.0
 11
800.1834022063485
 21
695.6676416403742
 31
0.0
  0
LINE
  5
CC0
330
1F
100
AcDbEntity
  8
PIC06
  6
Continuous
 62
     7
100
AcDbLine
 10
803.7951700278078
 20
699.2794094618334
 30
0.0
 11
804.0645332647534
 21
699.5487726987788
 31
0.0
  0
LINE
  5
CC1
330
1F
100
AcDbEntity
  8
PIC06
  6
Continuous
 62
     7
100
AcDbLine
 10
804.7972122153462
 20
700.2814516493717
 30
0.0
 11
805.0512156560884
 21
700.5354550901139
 31
0.0
  0
LINE
  5
CC2
330
1F
100
AcDbEntity
  8
PIC06
  6
Continuous
 62
     7
100
AcDbLine
 10
799.2471546054629
 20
694.898426816615
 30
0.0
 11
799.5210606439172
 21
695.1723328550692
 31
0.0
  0
LINE
  5
CC3
330
1F
100
AcDbEntity
  8
PIC06
  6
Continuous
 62
     7
100
AcDbLine
 10
799.6367407445204
 20
695.2880129556724
 30
0.0
 11
799.9956770963859
 21
695.6469493075378
 31
0.0
  0
LINE
  5
CC4
330
1F
100
AcDbEntity
  8
PIC06
  6
Continuous
 62
     7
100
AcDbLine
 10
803.6548356862061
 20
699.3061078973582
 30
0.0
 11
803.9241989231516
 21
699.5754711343035
 31
0.0
  0
LINE
  5
CC5
330
1F
100
AcDbEntity
  8
PIC06
  6
Continuous
 62
     7
100
AcDbLine
 10
804.6840272132541
 20
700.3352994244062
 30
0.0
 11
804.9611448573291
 21
700.6124170684811
 31
0.0
  0
LINE
  5
CC6
330
1F
100
AcDbEntity
  8
PIC06
  6
Continuous
 62
     7
100
AcDbLine
 10
799.2285960691802
 20
695.0469010574587
 30
0.0
 11
799.807951986423
 21
695.6262569747015
 31
0.0
  0
LINE
  5
CC7
330
1F
100
AcDbEntity
  8
PIC06
  6
Continuous
 62
     7
100
AcDbLine
 10
803.5145013446044
 20
699.3328063328829
 30
0.0
 11
803.7838645815499
 21
699.6021695698283
 31
0.0
  0
LINE
  5
CC8
330
1F
100
AcDbEntity
  8
PIC06
  6
Continuous
 62
     7
100
AcDbLine
 10
804.5087699594361
 20
700.3270749477146
 30
0.0
 11
804.8344141925849
 21
700.6527191808633
 31
0.0
  0
LINE
  5
CC9
330
1F
100
AcDbEntity
  8
PIC06
  6
Continuous
 62
     7
100
AcDbLine
 10
799.1558719407844
 20
695.1412097061894
 30
0.0
 11
799.6202268764602
 21
695.6055646418652
 31
0.0
  0
LINE
  5
CCA
330
1F
100
AcDbEntity
  8
PIC06
  6
Continuous
 62
     7
100
AcDbLine
 10
803.3741670030027
 20
699.3595047684075
 30
0.0
 11
803.643530239948
 21
699.628868005353
 31
0.0
  0
LINE
  5
CCB
330
1F
100
AcDbEntity
  8
PIC06
  6
Continuous
 62
     7
100
AcDbLine
 10
804.3296754121081
 20
700.315013177513
 30
0.0
 11
804.6644518289971
 21
700.6497895944021
 31
0.0
  0
LINE
  5
CCC
330
1F
100
AcDbEntity
  8
PIC06
  6
Continuous
 62
     7
100
AcDbLine
 10
798.9848669547251
 20
695.1372374972565
 30
0.0
 11
799.4325017664975
 21
695.5848723090289
 31
0.0
  0
LINE
  5
CCD
330
1F
100
AcDbEntity
  8
PIC06
  6
Continuous
 62
     7
100
AcDbLine
 10
803.2338326614009
 20
699.3862032039323
 30
0.0
 11
803.5031958983463
 21
699.6555664408778
 31
0.0
  0
LINE
  5
CCE
330
1F
100
AcDbEntity
  8
PIC06
  6
Continuous
 62
     7
100
AcDbLine
 10
804.1462465828402
 20
700.2986171253716
 30
0.0
 11
804.489062339522
 21
700.6414328820534
 31
0.0
  0
LINE
  5
CCF
330
1F
100
AcDbEntity
  8
PIC06
  6
Continuous
 62
     7
100
AcDbLine
 10
798.7983476942034
 20
695.1177510138612
 30
0.0
 11
799.2447766565348
 21
695.5641799761926
 31
0.0
  0
LINE
  5
CD0
330
1F
100
AcDbEntity
  8
PIC06
  6
Continuous
 62
     7
100
AcDbLine
 10
803.0934983197992
 20
699.412901639457
 30
0.0
 11
803.3628615567446
 21
699.6822648764024
 31
0.0
  0
LINE
  5
CD1
330
1F
100
AcDbEntity
  8
PIC06
  6
Continuous
 62
     7
100
AcDbLine
 10
803.9582567707613
 20
700.2776600904192
 30
0.0
 11
804.3099557609728
 21
700.6293590806307
 31
0.0
  0
LINE
  5
CD2
330
1F
100
AcDbEntity
  8
PIC06
  6
Continuous
 62
     7
100
AcDbLine
 10
798.6118284336817
 20
695.0982645304661
 30
0.0
 11
799.0570515465719
 21
695.5434876433563
 31
0.0
  0
LINE
  5
CD3
330
1F
100
AcDbEntity
  8
PIC06
  6
Continuous
 62
     7
100
AcDbLine
 10
802.9531639781973
 20
699.4396000749817
 30
0.0
 11
803.2225272151428
 21
699.7089633119271
 31
0.0
  0
LINE
  5
CD4
330
1F
100
AcDbEntity
  8
PIC06
  6
Continuous
 62
     7
100
AcDbLine
 10
803.7655388587838
 20
700.2519749555681
 30
0.0
 11
804.1268628057403
 21
700.6132989025246
 31
0.0
  0
LINE
  5
CD5
330
1F
100
AcDbEntity
  8
PIC06
  6
Continuous
 62
     7
100
AcDbLine
 10
798.42530917316
 20
695.0787780470707
 30
0.0
 11
798.8693264366092
 21
695.5227953105199
 31
0.0
  0
LINE
  5
CD6
330
1F
100
AcDbEntity
  8
PIC06
  6
Continuous
 62
     7
100
AcDbLine
 10
802.8128296365956
 20
699.4662985105064
 30
0.0
 11
803.0821928735411
 21
699.7356617474519
 31
0.0
  0
LINE
  5
CD7
330
1F
100
AcDbEntity
  8
PIC06
  6
Continuous
 62
     7
100
AcDbLine
 10
803.5677369228285
 20
700.2212057967392
 30
0.0
 11
803.9392377227761
 21
700.5927065966869
 31
0.0
  0
LINE
  5
CD8
330
1F
100
AcDbEntity
  8
PIC06
  6
Continuous
 62
     7
100
AcDbLine
 10
798.2387899126382
 20
695.0592915636755
 30
0.0
 11
798.6816013266465
 21
695.5021029776837
 31
0.0
  0
LINE
  5
CD9
330
1F
100
AcDbEntity
  8
PIC06
  6
Continuous
 62
     7
100
AcDbLine
 10
802.6724952949939
 20
699.4929969460311
 30
0.0
 11
802.9418585319394
 21
699.7623601829766
 31
0.0
  0
LINE
  5
CDA
330
1F
100
AcDbEntity
  8
PIC06
  6
Continuous
 62
     7
100
AcDbLine
 10
803.3644430884125
 20
700.1849447394498
 30
0.0
 11
803.747028670857
 21
700.5675303218942
 31
0.0
  0
LINE
  5
CDB
330
1F
100
AcDbEntity
  8
PIC06
  6
Continuous
 62
     7
100
AcDbLine
 10
798.0522706521164
 20
695.0398050802801
 30
0.0
 11
798.4938762166836
 21
695.4814106448473
 31
0.0
  0
LINE
  5
CDC
330
1F
100
AcDbEntity
  8
PIC06
  6
Continuous
 62
     7
100
AcDbLine
 10
802.5415182942813
 20
699.529052722445
 30
0.0
 11
802.8015241903375
 21
699.7890586185012
 31
0.0
  0
LINE
  5
CDD
330
1F
100
AcDbEntity
  8
PIC06
  6
Continuous
 62
     7
100
AcDbLine
 10
803.1539588280349
 20
700.1414932561985
 30
0.0
 11
803.5498909441011
 21
700.5374253722647
 31
0.0
  0
LINE
  5
CDE
330
1F
100
AcDbEntity
  8
PIC06
  6
Continuous
 62
     7
100
AcDbLine
 10
797.8657513915948
 20
695.020318596885
 30
0.0
 11
798.3061511067209
 21
695.460718312011
 31
0.0
  0
LINE
  5
CDF
330
1F
100
AcDbEntity
  8
PIC06
  6
Continuous
 62
     7
100
AcDbLine
 10
802.4459722557081
 20
699.6005394609982
 30
0.0
 11
802.6800599881195
 21
699.8346271934096
 31
0.0
  0
LINE
  5
CE0
330
1F
100
AcDbEntity
  8
PIC06
  6
Continuous
 62
     7
100
AcDbLine
 10
802.9367704611058
 20
700.0913376663959
 30
0.0
 11
803.3474382964678
 21
700.502005501758
 31
0.0
  0
LINE
  5
CE1
330
1F
100
AcDbEntity
  8
PIC06
  6
Continuous
 62
     7
100
AcDbLine
 10
797.6792321310731
 20
695.0008321134897
 30
0.0
 11
798.1184259967582
 21
695.4400259791748
 31
0.0
  0
LINE
  5
CE2
330
1F
100
AcDbEntity
  8
PIC06
  6
Continuous
 62
     7
100
AcDbLine
 10
802.3830406986787
 20
699.7046406810953
 30
0.0
 11
803.1391726182201
 21
700.4607726006367
 31
0.0
  0
LINE
  5
CE3
330
1F
100
AcDbEntity
  8
PIC06
  6
Continuous
 62
     7
100
AcDbLine
 10
797.4927128705513
 20
694.9813456300944
 30
0.0
 11
797.9307008867954
 21
695.4193336463385
 31
0.0
  0
LINE
  5
CE4
330
1F
100
AcDbEntity
  8
PIC06
  6
Continuous
 62
     7
100
AcDbLine
 10
802.3639005766522
 20
699.8525333361953
 30
0.0
 11
802.923414300104
 21
700.4120470596472
 31
0.0
  0
LINE
  5
CE5
330
1F
100
AcDbEntity
  8
PIC06
  6
Continuous
 62
     7
100
AcDbLine
 10
797.3061936100297
 20
694.9618591466992
 30
0.0
 11
797.7429757768327
 21
695.3986413135022
 31
0.0
  0
LINE
  5
CE6
330
1F
100
AcDbEntity
  8
PIC06
  6
Continuous
 62
     7
100
AcDbLine
 10
802.3685509667235
 20
700.024216503393
 30
0.0
 11
802.7003118560037
 21
700.3559773926732
 31
0.0
  0
LINE
  5
CE7
330
1F
100
AcDbEntity
  8
PIC06
  6
Continuous
 62
     7
100
AcDbLine
 10
797.119674349508
 20
694.942372663304
 30
0.0
 11
797.5581329451606
 21
695.3808312589566
 31
0.0
  0
LINE
  5
CE8
330
1F
100
AcDbEntity
  8
PIC06
  6
Continuous
 62
     7
100
AcDbLine
 10
796.9331550889863
 20
694.9228861799086
 30
0.0
 11
797.3733822522222
 21
695.3631133431447
 31
0.0
  0
LINE
  5
CE9
330
1F
100
AcDbEntity
  8
PIC06
  6
Continuous
 62
     7
100
AcDbLine
 10
796.747959626599
 20
694.9047234946479
 30
0.0
 11
797.188631559284
 21
695.3453954273328
 31
0.0
  0
LINE
  5
CEA
330
1F
100
AcDbEntity
  8
PIC06
  6
Continuous
 62
     7
100
AcDbLine
 10
796.5640244461894
 20
694.8878210913647
 30
0.0
 11
797.0038808663455
 21
695.327677511521
 31
0.0
  0
LINE
  5
CEB
330
1F
100
AcDbEntity
  8
PIC06
  6
Continuous
 62
     7
100
AcDbLine
 10
796.3800892657799
 20
694.8709186880818
 30
0.0
 11
796.8191301734072
 21
695.309959595709
 31
0.0
  0
LINE
  5
CEC
330
1F
100
AcDbEntity
  8
PIC06
  6
Continuous
 62
     7
100
AcDbLine
 10
796.1961540853705
 20
694.8540162847987
 30
0.0
 11
796.6343794804688
 21
695.292241679897
 31
0.0
  0
LINE
  5
CED
330
1F
100
AcDbEntity
  8
PIC06
  6
Continuous
 62
     7
100
AcDbLine
 10
796.0122189049609
 20
694.8371138815156
 30
0.0
 11
796.4496287875305
 21
695.2745237640852
 31
0.0
  0
LINE
  5
CEE
330
1F
100
AcDbEntity
  8
PIC06
  6
Continuous
 62
     7
100
AcDbLine
 10
795.8282837245515
 20
694.8202114782326
 30
0.0
 11
796.2648780945921
 21
695.2568058482732
 31
0.0
  0
LINE
  5
CEF
330
1F
100
AcDbEntity
  8
PIC06
  6
Continuous
 62
     7
100
AcDbLine
 10
795.6443485441419
 20
694.8033090749495
 30
0.0
 11
796.0801274016537
 21
695.2390879324614
 31
0.0
  0
LINE
  5
CF0
330
1F
100
AcDbEntity
  8
PIC06
  6
Continuous
 62
     7
100
AcDbLine
 10
795.4604133637324
 20
694.7864066716666
 30
0.0
 11
795.8953767087153
 21
695.2213700166495
 31
0.0
  0
LINE
  5
CF1
330
1F
100
AcDbEntity
  8
PIC06
  6
Continuous
 62
     7
100
AcDbLine
 10
795.276478183323
 20
694.7695042683834
 30
0.0
 11
795.710626015777
 21
695.2036521008376
 31
0.0
  0
LINE
  5
CF2
330
1F
100
AcDbEntity
  8
PIC06
  6
Continuous
 62
     7
100
AcDbLine
 10
795.0925430029134
 20
694.7526018651005
 30
0.0
 11
795.5258753228386
 21
695.1859341850258
 31
0.0
  0
LINE
  5
CF3
330
1F
100
AcDbEntity
  8
PIC06
  6
Continuous
 62
     7
100
AcDbLine
 10
794.9086078225039
 20
694.7356994618173
 30
0.0
 11
795.3411246299004
 21
695.1682162692138
 31
0.0
  0
LINE
  5
CF4
330
1F
100
AcDbEntity
  8
PIC06
  6
Continuous
 62
     7
100
AcDbLine
 10
794.7246726420944
 20
694.7187970585344
 30
0.0
 11
795.1566178443997
 21
695.1507422608395
 31
0.0
  0
LINE
  5
CF5
330
1F
100
AcDbEntity
  8
PIC06
  6
Continuous
 62
     7
100
AcDbLine
 10
794.5412691290374
 20
694.7024263226037
 30
0.0
 11
794.9745234358535
 21
695.1356806294199
 31
0.0
  0
LINE
  5
CF6
330
1F
100
AcDbEntity
  8
PIC06
  6
Continuous
 62
     7
100
AcDbLine
 10
794.3596514435831
 20
694.6878414142759
 30
0.0
 11
794.7924290273073
 21
695.1206189980001
 31
0.0
  0
LINE
  5
CF7
330
1F
100
AcDbEntity
  8
PIC06
  6
Continuous
 62
     7
100
AcDbLine
 10
794.1780337581286
 20
694.673256505948
 30
0.0
 11
794.6103346187612
 21
695.1055573665805
 31
0.0
  0
LINE
  5
CF8
330
1F
100
AcDbEntity
  8
PIC06
  6
Continuous
 62
     7
100
AcDbLine
 10
793.9964160726742
 20
694.65867159762
 30
0.0
 11
794.428240210215
 21
695.0904957351609
 31
0.0
  0
LINE
  5
CF9
330
1F
100
AcDbEntity
  8
PIC06
  6
Continuous
 62
     7
100
AcDbLine
 10
793.8147983872199
 20
694.644086689292
 30
0.0
 11
794.2461458016689
 21
695.0754341037411
 31
0.0
  0
LINE
  5
CFA
330
1F
100
AcDbEntity
  8
PIC06
  6
Continuous
 62
     7
100
AcDbLine
 10
793.6331807017656
 20
694.6295017809642
 30
0.0
 11
794.0640513931228
 21
695.0603724723215
 31
0.0
  0
LINE
  5
CFB
330
1F
100
AcDbEntity
  8
PIC06
  6
Continuous
 62
     7
100
AcDbLine
 10
793.4515630163112
 20
694.6149168726362
 30
0.0
 11
793.8819569845767
 21
695.0453108409018
 31
0.0
  0
LINE
  5
CFC
330
1F
100
AcDbEntity
  8
PIC06
  6
Continuous
 62
     7
100
AcDbLine
 10
793.2699453308567
 20
694.6003319643083
 30
0.0
 11
793.6998625760305
 21
695.0302492094821
 31
0.0
  0
LINE
  5
CFD
330
1F
100
AcDbEntity
  8
PIC06
  6
Continuous
 62
     7
100
AcDbLine
 10
793.0883276454023
 20
694.5857470559805
 30
0.0
 11
793.5177681674844
 21
695.0151875780625
 31
0.0
  0
LINE
  5
CFE
330
1F
100
AcDbEntity
  8
PIC06
  6
Continuous
 62
     7
100
AcDbLine
 10
792.9067099599481
 20
694.5711621476525
 30
0.0
 11
793.3356737589384
 21
695.0001259466428
 31
0.0
  0
LINE
  5
CFF
330
1F
100
AcDbEntity
  8
PIC06
  6
Continuous
 62
     7
100
AcDbLine
 10
792.7250922744937
 20
694.5565772393246
 30
0.0
 11
793.1535793503922
 21
694.9850643152231
 31
0.0
  0
LINE
  5
D00
330
1F
100
AcDbEntity
  8
PIC06
  6
Continuous
 62
     7
100
AcDbLine
 10
792.5434745890393
 20
694.5419923309966
 30
0.0
 11
792.971484941846
 21
694.9700026838034
 31
0.0
  0
LINE
  5
D01
330
1F
100
AcDbEntity
  8
PIC06
  6
Continuous
 62
     7
100
AcDbLine
 10
792.3618569035848
 20
694.5274074226688
 30
0.0
 11
792.7893905332999
 21
694.9549410523838
 31
0.0
  0
LINE
  5
D02
330
1F
100
AcDbEntity
  8
PIC06
  6
Continuous
 62
     7
100
AcDbLine
 10
792.1821370371584
 20
694.5147203333687
 30
0.0
 11
792.6072961247538
 21
694.939879420964
 31
0.0
  0
LINE
  5
D03
330
1F
100
AcDbEntity
  8
PIC06
  6
Continuous
 62
     7
100
AcDbLine
 10
792.0029603359609
 20
694.5025764092977
 30
0.0
 11
792.4279764153611
 21
694.927592488698
 31
0.0
  0
LINE
  5
D04
330
1F
100
AcDbEntity
  8
PIC06
  6
Continuous
 62
     7
100
AcDbLine
 10
791.8237836347635
 20
694.4904324852267
 30
0.0
 11
792.2486686067673
 21
694.9153174572305
 31
0.0
  0
LINE
  5
D05
330
1F
100
AcDbEntity
  8
PIC06
  6
Continuous
 62
     7
100
AcDbLine
 10
791.644606933566
 20
694.4782885611557
 30
0.0
 11
792.0693607981736
 21
694.9030424257633
 31
0.0
  0
LINE
  5
D06
330
1F
100
AcDbEntity
  8
PIC06
  6
Continuous
 62
     7
100
AcDbLine
 10
791.4654302323684
 20
694.4661446370846
 30
0.0
 11
791.8900529895799
 21
694.8907673942959
 31
0.0
  0
LINE
  5
D07
330
1F
100
AcDbEntity
  8
PIC06
  6
Continuous
 62
     7
100
AcDbLine
 10
791.2862535311711
 20
694.4540007130136
 30
0.0
 11
791.710745180986
 21
694.8784923628286
 31
0.0
  0
LINE
  5
D08
330
1F
100
AcDbEntity
  8
PIC06
  6
Continuous
 62
     7
100
AcDbLine
 10
789.6533669074338
 20
692.988146866403
 30
0.0
 11
789.8069669936822
 21
693.1417469526512
 31
0.0
  0
LINE
  5
D09
330
1F
100
AcDbEntity
  8
PIC06
  6
Continuous
 62
     7
100
AcDbLine
 10
791.1070768299736
 20
694.4418567889426
 30
0.0
 11
791.5314373723922
 21
694.8662173313613
 31
0.0
  0
LINE
  5
D0A
330
1F
100
AcDbEntity
  8
PIC06
  6
Continuous
 62
     7
100
AcDbLine
 10
789.4751039747506
 20
692.9769167108462
 30
0.0
 11
789.8247899226868
 21
693.3266026587823
 31
0.0
  0
LINE
  5
D0B
330
1F
100
AcDbEntity
  8
PIC06
  6
Continuous
 62
     7
100
AcDbLine
 10
790.927900128776
 20
694.4297128648716
 30
0.0
 11
791.3521295637985
 21
694.853942299894
 31
0.0
  0
LINE
  5
D0C
330
1F
100
AcDbEntity
  8
PIC06
  6
Continuous
 62
     7
100
AcDbLine
 10
789.4308555766523
 20
693.0997010898742
 30
0.0
 11
789.8348794334727
 21
693.5037249466946
 31
0.0
  0
LINE
  5
D0D
330
1F
100
AcDbEntity
  8
PIC06
  6
Continuous
 62
     7
100
AcDbLine
 10
790.7487234275786
 20
694.4175689408005
 30
0.0
 11
791.1728217552047
 21
694.8416672684267
 31
0.0
  0
LINE
  5
D0E
330
1F
100
AcDbEntity
  8
PIC06
  6
Continuous
 62
     7
100
AcDbLine
 10
789.4308555766523
 20
693.2667338670007
 30
0.0
 11
789.4559984204977
 21
693.2918767108461
 31
0.0
  0
LINE
  5
D0F
330
1F
100
AcDbEntity
  8
PIC06
  6
Continuous
 62
     7
100
AcDbLine
 10
789.5211881111903
 20
693.3570664015386
 30
0.0
 11
789.8449689442584
 21
693.6808472346069
 31
0.0
  0
LINE
  5
D10
330
1F
100
AcDbEntity
  8
PIC06
  6
Continuous
 62
     7
100
AcDbLine
 10
790.5695467263812
 20
694.4054250167296
 30
0.0
 11
790.9935139466109
 21
694.8293922369593
 31
0.0
  0
LINE
  5
D11
330
1F
100
AcDbEntity
  8
PIC06
  6
Continuous
 62
     7
100
AcDbLine
 10
789.536761597807
 20
693.5396726652819
 30
0.0
 11
789.8550584550442
 21
693.8579695225191
 31
0.0
  0
LINE
  5
D12
330
1F
100
AcDbEntity
  8
PIC06
  6
Continuous
 62
     7
100
AcDbLine
 10
790.3903700251836
 20
694.3932810926585
 30
0.0
 11
790.814206138017
 21
694.8171172054919
 31
0.0
  0
LINE
  5
D13
330
1F
100
AcDbEntity
  8
PIC06
  6
Continuous
 62
     7
100
AcDbLine
 10
789.5523350844239
 20
693.7222789290252
 30
0.0
 11
789.86514796583
 21
694.0350918104313
 31
0.0
  0
LINE
  5
D14
330
1F
100
AcDbEntity
  8
PIC06
  6
Continuous
 62
     7
100
AcDbLine
 10
790.2111933239861
 20
694.3811371685875
 30
0.0
 11
790.6348983294233
 21
694.8048421740246
 31
0.0
  0
LINE
  5
D15
330
1F
100
AcDbEntity
  8
PIC06
  6
Continuous
 62
     7
100
AcDbLine
 10
789.5679085710407
 20
693.9048851927684
 30
0.0
 11
789.8774252141592
 21
694.2144018358869
 31
0.0
  0
LINE
  5
D16
330
1F
100
AcDbEntity
  8
PIC06
  6
Continuous
 62
     7
100
AcDbLine
 10
790.0302165562515
 20
694.3671931779793
 30
0.0
 11
790.4555905208296
 21
694.7925671425573
 31
0.0
  0
LINE
  5
D17
330
1F
100
AcDbEntity
  8
PIC06
  6
Continuous
 62
     7
100
AcDbLine
 10
789.5834820576575
 20
694.0874914565117
 30
0.0
 11
790.2762827122358
 21
694.78029211109
 31
0.0
  0
LINE
  5
D18
330
1F
100
AcDbEntity
  8
PIC06
  6
Continuous
 62
     7
100
AcDbLine
 10
789.4476045348654
 20
694.1186467108462
 30
0.0
 11
790.0969749036419
 21
694.7680170796227
 31
0.0
  0
LINE
  5
D19
330
1F
100
AcDbEntity
  8
PIC06
  6
Continuous
 62
     7
100
AcDbLine
 10
789.4308555766523
 20
694.2689305297595
 30
0.0
 11
789.9012323120561
 21
694.7393072651632
 31
0.0
  0
LINE
  5
D1A
330
1F
100
AcDbEntity
  8
PIC06
  6
Continuous
 62
     7
100
AcDbLine
 10
787.6377434263596
 20
692.9769167108462
 30
0.0
 11
787.7379455766523
 21
693.0771188611389
 31
0.0
  0
LINE
  5
D1B
330
1F
100
AcDbEntity
  8
PIC06
  6
Continuous
 62
     7
100
AcDbLine
 10
787.50144432369
 20
693.007650385303
 30
0.0
 11
787.7379455766523
 21
693.2441516382653
 31
0.0
  0
LINE
  5
D1C
330
1F
100
AcDbEntity
  8
PIC06
  6
Continuous
 62
     7
100
AcDbLine
 10
787.416416210187
 20
693.0896550489265
 30
0.0
 11
787.6572604871142
 21
693.3304993258537
 31
0.0
  0
LINE
  5
D1D
330
1F
100
AcDbEntity
  8
PIC06
  6
Continuous
 62
     7
100
AcDbLine
 10
787.3667665001513
 20
693.2070381160172
 30
0.0
 11
787.5944033899854
 21
693.4346750058513
 31
0.0
  0
LINE
  5
D1E
330
1F
100
AcDbEntity
  8
PIC06
  6
Continuous
 62
     7
100
AcDbLine
 10
787.2924058908499
 20
693.2997102838424
 30
0.0
 11
787.5153151234401
 21
693.5226195164325
 31
0.0
  0
LINE
  5
D1F
330
1F
100
AcDbEntity
  8
PIC06
  6
Continuous
 62
     7
100
AcDbLine
 10
787.1870185051517
 20
693.3613556752704
 30
0.0
 11
787.4205695611149
 21
693.5949067312337
 31
0.0
  0
LINE
  5
D20
330
1F
100
AcDbEntity
  8
PIC06
  6
Continuous
 62
     7
100
AcDbLine
 10
787.0759323153814
 20
693.4173022626266
 30
0.0
 11
787.3101715329312
 21
693.6515414801765
 31
0.0
  0
LINE
  5
D21
330
1F
100
AcDbEntity
  8
PIC06
  6
Continuous
 62
     7
100
AcDbLine
 10
786.9703263467322
 20
693.478729071104
 30
0.0
 11
787.2001892661375
 21
693.7085919905093
 31
0.0
  0
LINE
  5
D22
330
1F
100
AcDbEntity
  8
PIC06
  6
Continuous
 62
     7
100
AcDbLine
 10
787.6102439864744
 20
694.1186467108462
 30
0.0
 11
787.7379455766523
 21
694.2463483010241
 31
0.0
  0
LINE
  5
D23
330
1F
100
AcDbEntity
  8
PIC06
  6
Continuous
 62
     7
100
AcDbLine
 10
786.8692020272712
 20
693.5446375287694
 30
0.0
 11
787.0962358948298
 21
693.7716713963279
 31
0.0
  0
LINE
  5
D24
330
1F
100
AcDbEntity
  8
PIC06
  6
Continuous
 62
     7
100
AcDbLine
 10
787.4866550256049
 20
694.1620905271031
 30
0.0
 11
787.7094385771963
 21
694.3848740786945
 31
0.0
  0
LINE
  5
D25
330
1F
100
AcDbEntity
  8
PIC06
  6
Continuous
 62
     7
100
AcDbLine
 10
786.7728867925216
 20
693.6153550711463
 30
0.0
 11
786.9976818981045
 21
693.8401501767292
 31
0.0
  0
LINE
  5
D26
330
1F
100
AcDbEntity
  8
PIC06
  6
Continuous
 62
     7
100
AcDbLine
 10
787.4052800829023
 20
694.2477483615269
 30
0.0
 11
787.6280636344938
 21
694.4705319131184
 31
0.0
  0
LINE
  5
D27
330
1F
100
AcDbEntity
  8
PIC06
  6
Continuous
 62
     7
100
AcDbLine
 10
786.6810119940213
 20
693.6905130497723
 30
0.0
 11
786.9043594980494
 21
693.9138605538005
 31
0.0
  0
LINE
  5
D28
330
1F
100
AcDbEntity
  8
PIC06
  6
Continuous
 62
     7
100
AcDbLine
 10
787.3239051401997
 20
694.3334061959508
 30
0.0
 11
787.5466886917911
 21
694.5561897475422
 31
0.0
  0
LINE
  5
D29
330
1F
100
AcDbEntity
  8
PIC06
  6
Continuous
 62
     7
100
AcDbLine
 10
786.5934638775558
 20
693.7699977104334
 30
0.0
 11
786.8163528892174
 21
693.992886722095
 31
0.0
  0
LINE
  5
D2A
330
1F
100
AcDbEntity
  8
PIC06
  6
Continuous
 62
     7
100
AcDbLine
 10
787.2425301974971
 20
694.4190640303746
 30
0.0
 11
787.4653137490885
 21
694.6418475819661
 31
0.0
  0
LINE
  5
D2B
330
1F
100
AcDbEntity
  8
PIC06
  6
Continuous
 62
     7
100
AcDbLine
 10
786.5105679154338
 20
693.8541345254378
 30
0.0
 11
786.7332634997599
 21
694.0768301097639
 31
0.0
  0
LINE
  5
D2C
330
1F
100
AcDbEntity
  8
PIC06
  6
Continuous
 62
     7
100
AcDbLine
 10
787.1611552547943
 20
694.5047218647983
 30
0.0
 11
787.3839388063859
 21
694.7275054163899
 31
0.0
  0
LINE
  5
D2D
330
1F
100
AcDbEntity
  8
PIC06
  6
Continuous
 62
     7
100
AcDbLine
 10
786.4316895885064
 20
693.9422889756368
 30
0.0
 11
786.6555704191796
 21
694.1661698063101
 31
0.0
  0
LINE
  5
D2E
330
1F
100
AcDbEntity
  8
PIC06
  6
Continuous
 62
     7
100
AcDbLine
 10
787.0780838796382
 20
694.5886832667687
 30
0.0
 11
787.3008893275649
 21
694.8114887146954
 31
0.0
  0
LINE
  5
D2F
330
1F
100
AcDbEntity
  8
PIC06
  6
Continuous
 62
     7
100
AcDbLine
 10
786.3577393015159
 20
694.0353714657728
 30
0.0
 11
786.582728529272
 21
694.2603606935289
 31
0.0
  0
LINE
  5
D30
330
1F
100
AcDbEntity
  8
PIC06
  6
Continuous
 62
     7
100
AcDbLine
 10
786.9988595793018
 20
694.6764917435587
 30
0.0
 11
787.2223365815606
 21
694.8999687458175
 31
0.0
  0
LINE
  5
D31
330
1F
100
AcDbEntity
  8
PIC06
  6
Continuous
 62
     7
100
AcDbLine
 10
786.2879583779739
 20
694.1326233193574
 30
0.0
 11
786.5156305518476
 21
694.3602954932311
 31
0.0
  0
LINE
  5
D32
330
1F
100
AcDbEntity
  8
PIC06
  6
Continuous
 62
     7
100
AcDbLine
 10
786.924049650802
 20
694.7687145921853
 30
0.0
 11
787.1492993362318
 21
694.9939642776151
 31
0.0
  0
LINE
  5
D33
330
1F
100
AcDbEntity
  8
PIC06
  6
Continuous
 62
     7
100
AcDbLine
 10
786.2230392214437
 20
694.2347369399535
 30
0.0
 11
786.4536293513796
 21
694.4653270698894
 31
0.0
  0
LINE
  5
D34
330
1F
100
AcDbEntity
  8
PIC06
  6
Continuous
 62
     7
100
AcDbLine
 10
786.8545059663313
 20
694.8662036848411
 30
0.0
 11
787.0820573010218
 21
695.0937550195317
 31
0.0
  0
LINE
  5
D35
330
1F
100
AcDbEntity
  8
PIC06
  6
Continuous
 62
     7
100
AcDbLine
 10
786.1628090663973
 20
694.3415395620337
 30
0.0
 11
786.3978116570867
 21
694.5765421527231
 31
0.0
  0
LINE
  5
D36
330
1F
100
AcDbEntity
  8
PIC06
  6
Continuous
 62
     7
100
AcDbLine
 10
786.789558517943
 20
694.9682890135792
 30
0.0
 11
787.0209730215045
 21
695.1997035171409
 31
0.0
  0
LINE
  5
D37
330
1F
100
AcDbEntity
  8
PIC06
  6
Continuous
 62
     7
100
AcDbLine
 10
786.107701345758
 20
694.4534646185208
 30
0.0
 11
786.3480115953982
 21
694.6937748681611
 31
0.0
  0
LINE
  5
D38
330
1F
100
AcDbEntity
  8
PIC06
  6
Continuous
 62
     7
100
AcDbLine
 10
786.7302135544897
 20
695.0759768272525
 30
0.0
 11
786.9658784604685
 21
695.3116417332313
 31
0.0
  0
LINE
  5
D39
330
1F
100
AcDbEntity
  8
PIC06
  6
Continuous
 62
     7
100
AcDbLine
 10
786.057848173216
 20
694.5706442231053
 30
0.0
 11
786.3046660061385
 21
694.8174620560278
 31
0.0
  0
LINE
  5
D3A
330
1F
100
AcDbEntity
  8
PIC06
  6
Continuous
 62
     7
100
AcDbLine
 10
786.676032623686
 20
695.1888286735752
 30
0.0
 11
786.9181813739168
 21
695.4309774238059
 31
0.0
  0
LINE
  5
D3B
330
1F
100
AcDbEntity
  8
PIC06
  6
Continuous
 62
     7
100
AcDbLine
 10
786.0138777920219
 20
694.6937066190375
 30
0.0
 11
786.2691593753445
 21
694.9489882023601
 31
0.0
  0
LINE
  5
D3C
330
1F
100
AcDbEntity
  8
PIC06
  6
Continuous
 62
     7
100
AcDbLine
 10
786.6278483354275
 20
695.3076771624431
 30
0.0
 11
786.8777895683224
 21
695.5576183953381
 31
0.0
  0
LINE
  5
D3D
330
1F
100
AcDbEntity
  8
PIC06
  6
Continuous
 62
     7
100
AcDbLine
 10
785.9757326254027
 20
694.8225942295448
 30
0.0
 11
786.2419230684182
 21
695.0887846725603
 31
0.0
  0
LINE
  5
D3E
330
1F
100
AcDbEntity
  8
PIC06
  6
Continuous
 62
     7
100
AcDbLine
 10
786.5860099233442
 20
695.4328715274864
 30
0.0
 11
786.8457213849837
 21
695.6925829891259
 31
0.0
  0
LINE
  5
D3F
330
1F
100
AcDbEntity
  8
PIC06
  6
Continuous
 62
     7
100
AcDbLine
 10
785.9451722812338
 20
694.9590666625024
 30
0.0
 11
786.2243503148667
 21
695.2382446961352
 31
0.0
  0
LINE
  5
D40
330
1F
100
AcDbEntity
  8
PIC06
  6
Continuous
 62
     7
100
AcDbLine
 10
786.5508589076117
 20
695.5647532888804
 30
0.0
 11
786.8235659812994
 21
695.837460362568
 31
0.0
  0
LINE
  5
D41
330
1F
100
AcDbEntity
  8
PIC06
  6
Continuous
 62
     7
100
AcDbLine
 10
785.9236189007319
 20
695.1045460591268
 30
0.0
 11
786.2184717088851
 21
695.3993988672801
 31
0.0
  0
LINE
  5
D42
330
1F
100
AcDbEntity
  8
PIC06
  6
Continuous
 62
     7
100
AcDbLine
 10
786.523647991504
 20
695.7045751498991
 30
0.0
 11
786.8067804783334
 21
695.9877076367283
 31
0.0
  0
LINE
  5
D43
330
1F
100
AcDbEntity
  8
PIC06
  6
Continuous
 62
     7
100
AcDbLine
 10
785.9073976240447
 20
695.2553575595661
 30
0.0
 11
786.2272321659582
 21
695.5751921014797
 31
0.0
  0
LINE
  5
D44
330
1F
100
AcDbEntity
  8
PIC06
  6
Continuous
 62
     7
100
AcDbLine
 10
786.5048778601425
 20
695.8528377956639
 30
0.0
 11
786.7899949753673
 21
696.1379549108889
 31
0.0
  0
LINE
  5
D45
330
1F
100
AcDbEntity
  8
PIC06
  6
Continuous
 62
     7
100
AcDbLine
 10
785.903608364237
 20
695.418601076885
 30
0.0
 11
786.2569466748952
 21
695.7719393875431
 31
0.0
  0
LINE
  5
D46
330
1F
100
AcDbEntity
  8
PIC06
  6
Continuous
 62
     7
100
AcDbLine
 10
786.4879729031525
 20
696.0029656158004
 30
0.0
 11
786.7746061581856
 21
696.2895988708336
 31
0.0
  0
LINE
  5
D47
330
1F
100
AcDbEntity
  8
PIC06
  6
Continuous
 62
     7
100
AcDbLine
 10
785.9127712889984
 20
695.5947967787729
 30
0.0
 11
786.317921664606
 21
695.9999471543804
 31
0.0
  0
LINE
  5
D48
330
1F
100
AcDbEntity
  8
PIC06
  6
Continuous
 62
     7
100
AcDbLine
 10
786.4719494735734
 20
696.1539749633478
 30
0.0
 11
786.7593706649868
 21
696.4413961547611
 31
0.0
  0
LINE
  5
D49
330
1F
100
AcDbEntity
  8
PIC06
  6
Continuous
 62
     7
100
AcDbLine
 10
785.9393014058126
 20
695.7883596727135
 30
0.0
 11
786.4436945509294
 21
696.2927528178303
 31
0.0
  0
LINE
  5
D4A
330
1F
100
AcDbEntity
  8
PIC06
  6
Continuous
 62
     7
100
AcDbLine
 10
786.4563724269294
 20
696.3054306938303
 30
0.0
 11
786.745244595153
 21
696.5943028620538
 31
0.0
  0
LINE
  5
D4B
330
1F
100
AcDbEntity
  8
PIC06
  6
Continuous
 62
     7
100
AcDbLine
 10
785.9898012203288
 20
696.0058922643561
 30
0.0
 11
786.7314653408578
 21
696.7475563848851
 31
0.0
  0
LINE
  5
D4C
330
1F
100
AcDbEntity
  8
PIC06
  6
Continuous
 62
     7
100
AcDbLine
 10
786.0814753624398
 20
696.2645991835936
 30
0.0
 11
786.718635591478
 21
696.9017594126317
 31
0.0
  0
LINE
  5
D4D
330
1F
100
AcDbEntity
  8
PIC06
  6
Continuous
 62
     7
100
AcDbLine
 10
786.2747048262848
 20
696.6248614245651
 30
0.0
 11
786.7063379967844
 21
697.0564945950646
 31
0.0
  0
LINE
  5
D4E
330
1F
100
AcDbEntity
  8
PIC06
  6
Continuous
 62
     7
100
AcDbLine
 10
786.3283645830401
 20
696.8455539584469
 30
0.0
 11
786.6948522025251
 21
697.2120415779317
 31
0.0
  0
LINE
  5
D4F
330
1F
100
AcDbEntity
  8
PIC06
  6
Continuous
 62
     7
100
AcDbLine
 10
786.3158450289578
 20
697.000067181491
 30
0.0
 11
786.6840626863094
 21
697.3682848388425
 31
0.0
  0
LINE
  5
D50
330
1F
100
AcDbEntity
  8
PIC06
  6
Continuous
 62
     7
100
AcDbLine
 10
786.3042356773434
 20
697.1554906070031
 30
0.0
 11
786.6739710046665
 21
697.5252259343262
 31
0.0
  0
LINE
  5
D51
330
1F
100
AcDbEntity
  8
PIC06
  6
Continuous
 62
     7
100
AcDbLine
 10
786.2931944631338
 20
697.3114821699198
 30
0.0
 11
786.6647170314564
 21
697.6830047382425
 31
0.0
  0
LINE
  5
D52
330
1F
100
AcDbEntity
  8
PIC06
  6
Continuous
 62
     7
100
AcDbLine
 10
786.2831224708578
 20
697.4684429547703
 30
0.0
 11
786.6560723121697
 21
697.8413927960822
 31
0.0
  0
LINE
  5
D53
330
1F
100
AcDbEntity
  8
PIC06
  6
Continuous
 62
     7
100
AcDbLine
 10
786.2734692603361
 20
697.6258225213752
 30
0.0
 11
786.648382442599
 21
698.000735703638
 31
0.0
  0
LINE
  5
D54
330
1F
100
AcDbEntity
  8
PIC06
  6
Continuous
 62
     7
100
AcDbLine
 10
786.2649402876511
 20
697.7843263258165
 30
0.0
 11
786.6412404104464
 21
698.1606264486118
 31
0.0
  0
LINE
  5
D55
330
1F
100
AcDbEntity
  8
PIC06
  6
Continuous
 62
     7
100
AcDbLine
 10
786.2566983598583
 20
697.9431171751501
 30
0.0
 11
786.6351443549157
 21
698.3215631702076
 31
0.0
  0
LINE
  5
D56
330
1F
100
AcDbEntity
  8
PIC06
  6
Continuous
 62
     7
100
AcDbLine
 10
786.2497638409754
 20
698.1032154333938
 30
0.0
 11
786.6295638071246
 21
698.483015399543
 31
0.0
  0
LINE
  5
D57
330
1F
100
AcDbEntity
  8
PIC06
  6
Continuous
 62
     7
100
AcDbLine
 10
786.2430173619584
 20
698.2635017315033
 30
0.0
 11
786.6250924829121
 21
698.645576852457
 31
0.0
  0
LINE
  5
D58
330
1F
100
AcDbEntity
  8
PIC06
  6
Continuous
 62
     7
100
AcDbLine
 10
786.2376712607731
 20
698.4251884074443
 30
0.0
 11
786.6211788280918
 21
698.808695974763
 31
0.0
  0
LINE
  5
D59
330
1F
100
AcDbEntity
  8
PIC06
  6
Continuous
 62
     7
100
AcDbLine
 10
786.2326040385004
 20
698.5871539622981
 30
0.0
 11
786.6185039898348
 21
698.9730539136324
 31
0.0
  0
LINE
  5
D5A
330
1F
100
AcDbEntity
  8
PIC06
  6
Continuous
 62
     7
100
AcDbLine
 10
786.9910129974445
 20
699.3455629212421
 30
0.0
 11
787.4033005766524
 21
699.7578505004501
 31
0.0
  0
LINE
  5
D5B
330
1F
100
AcDbEntity
  8
PIC06
  6
Continuous
 62
     7
100
AcDbLine
 10
786.2287442901139
 20
698.7503269910381
 30
0.0
 11
787.4033005766524
 21
699.9248832775765
 31
0.0
  0
LINE
  5
D5C
330
1F
100
AcDbEntity
  8
PIC06
  6
Continuous
 62
     7
100
AcDbLine
 10
786.2254596300531
 20
698.9140751081037
 30
0.0
 11
787.0271538591319
 21
699.7157693371827
 31
0.0
  0
LINE
  5
D5D
330
1F
100
AcDbEntity
  8
PIC06
  6
Continuous
 62
     7
100
AcDbLine
 10
787.0883405766524
 20
699.776956054703
 30
0.0
 11
787.4033005766524
 21
700.091916054703
 31
0.0
  0
LINE
  5
D5E
330
1F
100
AcDbEntity
  8
PIC06
  6
Continuous
 62
     7
100
AcDbLine
 10
786.2232404855649
 20
699.0788887407419
 30
0.0
 11
786.6930883048791
 21
699.5487365600562
 31
0.0
  0
LINE
  5
D5F
330
1F
100
AcDbEntity
  8
PIC06
  6
Continuous
 62
     7
100
AcDbLine
 10
787.0883405766524
 20
699.9439888318295
 30
0.0
 11
787.4033005766524
 21
700.2589488318294
 31
0.0
  0
LINE
  5
D60
330
1F
100
AcDbEntity
  8
PIC06
  6
Continuous
 62
     7
100
AcDbLine
 10
786.2222005766524
 20
699.2448816089559
 30
0.0
 11
786.5371605766523
 21
699.5598416089558
 31
0.0
  0
LINE
  5
D61
330
1F
100
AcDbEntity
  8
PIC06
  6
Continuous
 62
     7
100
AcDbLine
 10
787.0883405766524
 20
700.1110216089558
 30
0.0
 11
787.3935756443642
 21
700.4162566766678
 31
0.0
  0
LINE
  5
D62
330
1F
100
AcDbEntity
  8
PIC06
  6
Continuous
 62
     7
100
AcDbLine
 10
786.2222005766524
 20
699.4119143860823
 30
0.0
 11
786.5371605766523
 21
699.7268743860823
 31
0.0
  0
LINE
  5
D63
330
1F
100
AcDbEntity
  8
PIC06
  6
Continuous
 62
     7
100
AcDbLine
 10
787.0883405766524
 20
700.2780543860824
 30
0.0
 11
787.3393953904501
 21
700.5291091998802
 31
0.0
  0
LINE
  5
D64
330
1F
100
AcDbEntity
  8
PIC06
  6
Continuous
 62
     7
100
AcDbLine
 10
786.2222005766524
 20
699.5789471632089
 30
0.0
 11
786.5371605766523
 21
699.8939071632088
 31
0.0
  0
LINE
  5
D65
330
1F
100
AcDbEntity
  8
PIC06
  6
Continuous
 62
     7
100
AcDbLine
 10
786.9823601242897
 20
700.3391067108461
 30
0.0
 11
787.2515756572981
 21
700.6083222438544
 31
0.0
  0
LINE
  5
D66
330
1F
100
AcDbEntity
  8
PIC06
  6
Continuous
 62
     7
100
AcDbLine
 10
786.2222005766524
 20
699.7459799403352
 30
0.0
 11
786.5371605766523
 21
700.0609399403352
 31
0.0
  0
LINE
  5
D67
330
1F
100
AcDbEntity
  8
PIC06
  6
Continuous
 62
     7
100
AcDbLine
 10
786.8153273471632
 20
700.3391067108461
 30
0.0
 11
787.1277585879157
 21
700.6515379515986
 31
0.0
  0
LINE
  5
D68
330
1F
100
AcDbEntity
  8
PIC06
  6
Continuous
 62
     7
100
AcDbLine
 10
786.2222005766524
 20
699.9130127174618
 30
0.0
 11
786.5376500145573
 21
700.2284621553667
 31
0.0
  0
LINE
  5
D69
330
1F
100
AcDbEntity
  8
PIC06
  6
Continuous
 62
     7
100
AcDbLine
 10
786.6478051321317
 20
700.3386172729411
 30
0.0
 11
786.9632545700368
 21
700.6540667108461
 31
0.0
  0
LINE
  5
D6A
330
1F
100
AcDbEntity
  8
PIC06
  6
Continuous
 62
     7
100
AcDbLine
 10
786.2213447471313
 20
700.0791896650671
 30
0.0
 11
786.7962217929104
 21
700.6540667108461
 31
0.0
  0
LINE
  5
D6B
330
1F
100
AcDbEntity
  8
PIC06
  6
Continuous
 62
     7
100
AcDbLine
 10
786.1709522909664
 20
700.1958299860286
 30
0.0
 11
786.6291890157838
 21
700.6540667108461
 31
0.0
  0
LINE
  5
D6C
330
1F
100
AcDbEntity
  8
PIC06
  6
Continuous
 62
     7
100
AcDbLine
 10
786.064401633913
 20
700.2563121061017
 30
0.0
 11
786.4621562386574
 21
700.6540667108461
 31
0.0
  0
LINE
  5
D6D
330
1F
100
AcDbEntity
  8
PIC06
  6
Continuous
 62
     7
100
AcDbLine
 10
785.9014234615309
 20
700.2603667108461
 30
0.0
 11
786.2951234615309
 21
700.6540667108461
 31
0.0
  0
LINE
  5
D6E
330
1F
100
AcDbEntity
  8
PIC06
  6
Continuous
 62
     7
100
AcDbLine
 10
785.7343906844045
 20
700.2603667108461
 30
0.0
 11
786.1280906844045
 21
700.6540667108461
 31
0.0
  0
LINE
  5
D6F
330
1F
100
AcDbEntity
  8
PIC06
  6
Continuous
 62
     7
100
AcDbLine
 10
785.7300755766524
 20
700.4230843802205
 30
0.0
 11
785.9610579072779
 21
700.6540667108461
 31
0.0
  0
LINE
  5
D70
330
1F
100
AcDbEntity
  8
PIC06
  6
Continuous
 62
     7
100
AcDbLine
 10
785.7300755766524
 20
700.5901171573469
 30
0.0
 11
785.7940251301515
 21
700.6540667108461
 31
0.0
  0
LINE
  5
D71
330
1F
100
AcDbEntity
  8
PIC06
  6
Continuous
 62
     7
100
AcDbLine
 10
784.2310956902664
 20
700.2603667108461
 30
0.0
 11
784.3521255766524
 21
700.3813965972321
 31
0.0
  0
LINE
  5
D72
330
1F
100
AcDbEntity
  8
PIC06
  6
Continuous
 62
     7
100
AcDbLine
 10
784.0640629131399
 20
700.2603667108461
 30
0.0
 11
784.3521255766524
 21
700.5484293743586
 31
0.0
  0
LINE
  5
D73
330
1F
100
AcDbEntity
  8
PIC06
  6
Continuous
 62
     7
100
AcDbLine
 10
783.8970301360134
 20
700.2603667108461
 30
0.0
 11
784.2907301360135
 21
700.6540667108461
 31
0.0
  0
LINE
  5
D74
330
1F
100
AcDbEntity
  8
PIC06
  6
Continuous
 62
     7
100
AcDbLine
 10
783.7299973588869
 20
700.2603667108461
 30
0.0
 11
784.1236973588871
 21
700.6540667108461
 31
0.0
  0
LINE
  5
D75
330
1F
100
AcDbEntity
  8
PIC06
  6
Continuous
 62
     7
100
AcDbLine
 10
783.5629645817605
 20
700.2603667108461
 30
0.0
 11
783.9566645817606
 21
700.6540667108461
 31
0.0
  0
LINE
  5
D76
330
1F
100
AcDbEntity
  8
PIC06
  6
Continuous
 62
     7
100
AcDbLine
 10
783.395931804634
 20
700.2603667108461
 30
0.0
 11
783.7896318046341
 21
700.6540667108461
 31
0.0
  0
LINE
  5
D77
330
1F
100
AcDbEntity
  8
PIC06
  6
Continuous
 62
     7
100
AcDbLine
 10
783.2288990275076
 20
700.2603667108461
 30
0.0
 11
783.6225990275076
 21
700.6540667108461
 31
0.0
  0
LINE
  5
D78
330
1F
100
AcDbEntity
  8
PIC06
  6
Continuous
 62
     7
100
AcDbLine
 10
783.0618662503812
 20
700.2603667108461
 30
0.0
 11
783.4555662503812
 21
700.6540667108461
 31
0.0
  0
LINE
  5
D79
330
1F
100
AcDbEntity
  8
PIC06
  6
Continuous
 62
     7
100
AcDbLine
 10
782.8948334732547
 20
700.2603667108461
 30
0.0
 11
783.2885334732546
 21
700.6540667108461
 31
0.0
  0
LINE
  5
D7A
330
1F
100
AcDbEntity
  8
PIC06
  6
Continuous
 62
     7
100
AcDbLine
 10
782.7278006961282
 20
700.2603667108461
 30
0.0
 11
783.1215006961282
 21
700.6540667108461
 31
0.0
  0
LINE
  5
D7B
330
1F
100
AcDbEntity
  8
PIC06
  6
Continuous
 62
     7
100
AcDbLine
 10
782.5607679190018
 20
700.2603667108461
 30
0.0
 11
782.9544679190018
 21
700.6540667108461
 31
0.0
  0
LINE
  5
D7C
330
1F
100
AcDbEntity
  8
PIC06
  6
Continuous
 62
     7
100
AcDbLine
 10
782.3937351418753
 20
700.2603667108461
 30
0.0
 11
782.7874351418753
 21
700.6540667108461
 31
0.0
  0
LINE
  5
D7D
330
1F
100
AcDbEntity
  8
PIC06
  6
Continuous
 62
     7
100
AcDbLine
 10
782.2267023647489
 20
700.2603667108461
 30
0.0
 11
782.6204023647489
 21
700.6540667108461
 31
0.0
  0
LINE
  5
D7E
330
1F
100
AcDbEntity
  8
PIC06
  6
Continuous
 62
     7
100
AcDbLine
 10
782.0596695876225
 20
700.2603667108461
 30
0.0
 11
782.4533695876224
 21
700.6540667108461
 31
0.0
  0
LINE
  5
D7F
330
1F
100
AcDbEntity
  8
PIC06
  6
Continuous
 62
     7
100
AcDbLine
 10
781.892636810496
 20
700.2603667108461
 30
0.0
 11
782.2863368104959
 21
700.6540667108461
 31
0.0
  0
LINE
  5
D80
330
1F
100
AcDbEntity
  8
PIC06
  6
Continuous
 62
     7
100
AcDbLine
 10
781.7256040333695
 20
700.2603667108461
 30
0.0
 11
782.1193040333695
 21
700.6540667108461
 31
0.0
  0
LINE
  5
D81
330
1F
100
AcDbEntity
  8
PIC06
  6
Continuous
 62
     7
100
AcDbLine
 10
780.771171256243
 20
699.4729667108461
 30
0.0
 11
780.9072505766525
 21
699.6090460312554
 31
0.0
  0
LINE
  5
D82
330
1F
100
AcDbEntity
  8
PIC06
  6
Continuous
 62
     7
100
AcDbLine
 10
781.5585712562431
 20
700.2603667108461
 30
0.0
 11
781.9522712562431
 21
700.6540667108461
 31
0.0
  0
LINE
  5
D83
330
1F
100
AcDbEntity
  8
PIC06
  6
Continuous
 62
     7
100
AcDbLine
 10
780.6041384791166
 20
699.4729667108461
 30
0.0
 11
780.9072505766525
 21
699.7760788083818
 31
0.0
  0
LINE
  5
D84
330
1F
100
AcDbEntity
  8
PIC06
  6
Continuous
 62
     7
100
AcDbLine
 10
781.3915384791166
 20
700.2603667108461
 30
0.0
 11
781.7852384791166
 21
700.6540667108461
 31
0.0
  0
LINE
  5
D85
330
1F
100
AcDbEntity
  8
PIC06
  6
Continuous
 62
     7
100
AcDbLine
 10
780.5135505766523
 20
699.5494115855084
 30
0.0
 11
780.9072505766525
 21
699.9431115855084
 31
0.0
  0
LINE
  5
D86
330
1F
100
AcDbEntity
  8
PIC06
  6
Continuous
 62
     7
100
AcDbLine
 10
781.2245057019902
 20
700.2603667108461
 30
0.0
 11
781.6182057019902
 21
700.6540667108461
 31
0.0
  0
LINE
  5
D87
330
1F
100
AcDbEntity
  8
PIC06
  6
Continuous
 62
     7
100
AcDbLine
 10
780.5135505766523
 20
699.7164443626348
 30
0.0
 11
780.9072505766525
 21
700.1101443626348
 31
0.0
  0
LINE
  5
D88
330
1F
100
AcDbEntity
  8
PIC06
  6
Continuous
 62
     7
100
AcDbLine
 10
781.0574729248637
 20
700.2603667108461
 30
0.0
 11
781.4511729248637
 21
700.6540667108461
 31
0.0
  0
LINE
  5
D89
330
1F
100
AcDbEntity
  8
PIC06
  6
Continuous
 62
     7
100
AcDbLine
 10
780.5135505766523
 20
699.8834771397613
 30
0.0
 11
781.2841401477372
 21
700.6540667108461
 31
0.0
  0
LINE
  5
D8A
330
1F
100
AcDbEntity
  8
PIC06
  6
Continuous
 62
     7
100
AcDbLine
 10
780.5135505766523
 20
700.0505099168877
 30
0.0
 11
781.1171073706108
 21
700.6540667108461
 31
0.0
  0
LINE
  5
D8B
330
1F
100
AcDbEntity
  8
PIC06
  6
Continuous
 62
     7
100
AcDbLine
 10
780.4975131493229
 20
700.2015052666846
 30
0.0
 11
780.9500745934843
 21
700.6540667108461
 31
0.0
  0
LINE
  5
D8C
330
1F
100
AcDbEntity
  8
PIC06
  6
Continuous
 62
     7
100
AcDbLine
 10
780.3893418163578
 20
700.2603667108461
 30
0.0
 11
780.7830418163579
 21
700.6540667108461
 31
0.0
  0
LINE
  5
D8D
330
1F
100
AcDbEntity
  8
PIC06
  6
Continuous
 62
     7
100
AcDbLine
 10
780.3167005766525
 20
700.3547582482671
 30
0.0
 11
780.6160090392315
 21
700.6540667108461
 31
0.0
  0
LINE
  5
D8E
330
1F
100
AcDbEntity
  8
PIC06
  6
Continuous
 62
     7
100
AcDbLine
 10
780.3167005766525
 20
700.5217910253935
 30
0.0
 11
780.448976262105
 21
700.6540667108461
 31
0.0
  0
DIMENSION
  5
F1F
102
{ACAD_XDICTIONARY
360
F2D
102
}
102
{ACAD_REACTORS
330
F38
102
}
330
1F
100
AcDbEntity
  8
0
100
AcDbDimension
  2
*D0
 10
818.2482826396404
 20
701.9972598441425
 30
0.0
 11
825.2364576396404
 21
701.9972598441425
 31
0.0
 70
    32
 71
     5
 42
13.97635000000014
  3
Standard
100
AcDbAlignedDimension
 13
832.2246326396404
 23
700.1372008438261
 33
0.0
 14
818.2482826396404
 24
700.1372008438261
 34
0.0
100
AcDbRotatedDimension
  0
VIEWPORT
  5
220
102
{ACAD_XDICTIONARY
360
13BB
102
}
330
58
100
AcDbEntity
 67
     1
  8
0
100
AcDbViewport
 10
133.1884465048756
 20
109.1175889154594
 30
0.0
 40
445.141553439829
 41
249.3387543209733
 68
     1
 69
     1
 12
133.1884465048756
 22
109.1175889154594
 13
0.0
 23
0.0
 14
0.5
 24
0.5
 15
0.5
 25
0.5
 16
0.0
 26
0.0
 36
1.0
 17
0.0
 27
0.0
 37
0.0
 42
50.0
 43
0.0
 44
0.0
 45
249.3387543209733
 50
0.0
 51
0.0
 72
  1000
 90
    32800
  1

281
     0
 71
     1
 74
     0
110
0.0
120
0.0
130
0.0
111
1.0
121
0.0
131
0.0
112
0.0
122
1.0
132
0.0
 79
     0
146
0.0
  0
ENDSEC
  0
SECTION
  2
OBJECTS
  0
DICTIONARY
  5
C
330
0
100
AcDbDictionary
281
     1
  3
ACAD_2007HEADERVARS_RT
350
13B5
  3
ACAD_CIP_PREVIOUS_PRODUCT_INFO
350
13A8
  3
ACAD_COLOR
350
73
  3
ACAD_GROUP
350
D
  3
ACAD_LAYOUT
350
1A
  3
ACAD_MATERIAL
350
72
  3
ACAD_MLEADERSTYLE
350
13A4
  3
ACAD_MLINESTYLE
350
17
  3
ACAD_PLOTSETTINGS
350
19
  3
ACAD_PLOTSTYLENAME
350
E
  3
ACAD_SCALELIST
350
1392
  3
ACAD_TABLESTYLE
350
86
  3
ACAD_VISUALSTYLE
350
1379
  3
ACDB_RECOMPOSE_DATA
350
13B3
  3
AcDbVariableDictionary
350
66
  3
ASE_INDEX_DICTIONARY
350
432
  3
DWGPROPS
350
13B4
  0
DICTIONARY
  5
1D0
330
2
100
AcDbDictionary
280
     1
281
     1
  3
ACAD_LAYERSTATES
360
1D1
  0
DICTIONARY
  5
F2D
330
F1F
100
AcDbDictionary
280
     1
281
     1
  3
ACAD_DIMASSOC
360
F38
  0
DICTIONARY
  5
13BB
330
220
100
AcDbDictionary
280
     1
281
     1
  3
ACAD_XREC_ROUNDTRIP
360
13BC
  0
DICTIONARY
  5
13B5
102
{ACAD_REACTORS
330
C
102
}
330
C
100
AcDbDictionary
281
     1
  3
DIMFXL
350
13B6
  0
XRECORD
  5
13A8
102
{ACAD_REACTORS
330
C
102
}
330
C
100
AcDbXrecord
280
     1
300
ACD
300
2012
300
85730ACD_2012_0F
  0
DICTIONARY
  5
73
102
{ACAD_REACTORS
330
C
102
}
330
C
100
AcDbDictionary
281
     1
  0
DICTIONARY
  5
D
102
{ACAD_REACTORS
330
C
102
}
330
C
100
AcDbDictionary
281
     1
  0
DICTIONARY
  5
1A
102
{ACAD_REACTORS
330
C
102
}
330
C
100
AcDbDictionary
281
     1
  3
Layout1
350
59
  3
Model
350
22
  0
DICTIONARY
  5
72
102
{ACAD_REACTORS
330
C
102
}
330
C
100
AcDbDictionary
281
     1
  3
ByBlock
350
1369
  3
ByLayer
350
1361
  3
Global
350
1371
  0
DICTIONARY
  5
13A4
102
{ACAD_REACTORS
330
C
102
}
330
C
100
AcDbDictionary
281
     1
  3
Standard
350
13A5
  0
DICTIONARY
  5
17
102
{ACAD_REACTORS
330
C
102
}
330
C
100
AcDbDictionary
281
     1
  3
Standard
350
18
  0
DICTIONARY
  5
19
102
{ACAD_REACTORS
330
C
102
}
330
C
100
AcDbDictionary
281
     1
  0
ACDBDICTIONARYWDFLT
  5
E
102
{ACAD_REACTORS
330
C
102
}
330
C
100
AcDbDictionary
281
     1
  3
Normal
350
F
100
AcDbDictionaryWithDefault
340
F
  0
DICTIONARY
  5
1392
102
{ACAD_REACTORS
330
C
102
}
330
C
100
AcDbDictionary
281
     1
  3
A0
350
1393
  3
A1
350
1394
  3
A2
350
1395
  3
A3
350
1396
  3
A4
350
1397
  3
A5
350
1398
  3
A6
350
1399
  3
A7
350
139A
  3
A8
350
139B
  3
A9
350
139C
  3
B0
350
139D
  3
B1
350
139E
  3
B2
350
139F
  3
B3
350
13A0
  3
B4
350
13A1
  3
B5
350
13A2
  3
B6
350
13A3
  0
DICTIONARY
  5
86
102
{ACAD_REACTORS
330
C
102
}
330
C
100
AcDbDictionary
281
     1
  3
Standard
350
87
  0
DICTIONARY
  5
1379
102
{ACAD_REACTORS
330
C
102
}
330
C
100
AcDbDictionary
281
     1
  3
2dWireframe
350
137F
  3
Basic
350
137E
  3
Brighten
350
1385
  3
ColorChange
350
1389
  3
Conceptual
350
1382
  3
Dim
350
1384
  3
EdgeColorOff
350
1391
  3
Facepattern
350
1388
  3
Flat
350
137A
  3
FlatWithEdges
350
137B
  3
Gouraud
350
137C
  3
GouraudWithEdges
350
137D
  3
Hidden
350
1381
  3
JitterOff
350
138F
  3
Linepattern
350
1387
  3
OverhangOff
350
1390
  3
Realistic
350
1383
  3
Shaded
350
138E
  3
Shaded with edges
350
138D
  3
Shades of Gray
350
138A
  3
Sketchy
350
138B
  3
Thicken
350
1386
  3
Wireframe
350
1380
  3
X-Ray
350
138C
  0
XRECORD
  5
13B3
102
{ACAD_REACTORS
330
C
102
}
330
C
100
AcDbXrecord
280
     1
 90
        1
330
87
  0
DICTIONARY
  5
66
102
{ACAD_REACTORS
330
C
102
}
330
C
100
AcDbDictionary
281
     1
  3
CANNOSCALE
350
13AA
  3
CMLEADERSTYLE
350
13A9
  3
CTABLESTYLE
350
1FB
  3
DIMASSOC
350
67
  3
HIDETEXT
350
6B
  3
INDEXCTL
350
13AC
  3
PROJECTNAME
350
135F
  3
SORTENTS
350
13AB
  3
XCLIPFRAME
350
13AD
  0
DICTIONARY
  5
432
102
{ACAD_REACTORS
330
C
102
}
330
C
100
AcDbDictionary
281
     1
  3
ASEBlockHierarchyIndexRecord
350
433
1001
DCO15
1040
1629023144.394
  0
XRECORD
  5
13B4
102
{ACAD_REACTORS
330
C
102
}
330
C
100
AcDbXrecord
280
     1
  1
DWGPROPS COOKIE
  2

  3

  4

  6

  7

  8
jgayle
  9

300
=
301
=
302
=
303
=
304
=
305
=
306
=
307
=
308
=
309
=
 40
0.0232743981481482
 41
2454741.57157603
 42
2456134.628409931
  1

 90
        0
  0
DICTIONARY
  5
1D1
102
{ACAD_REACTORS
330
1D0
102
}
330
1D0
100
AcDbDictionary
281
     1
  0
DIMASSOC
  5
F38
102
{ACAD_REACTORS
330
F2D
102
}
330
F2D
100
AcDbDimAssoc
330
F1F
 90
        3
 70
     0
 71
     0
  1
AcDbOsnapPointRef
 72
    13
331
AB5
 73
     2
 91
        0
 40
0.0
 10
0.0
 20
0.0
 30
2.000000000000000E+50
 75
     0
  1
AcDbOsnapPointRef
 72
    13
331
AD4
 73
     2
 91
        0
 40
0.0
 10
0.0
 20
0.0
 30
2.000000000000000E+50
 75
     0
  0
XRECORD
  5
13BC
102
{ACAD_REACTORS
330
13BB
102
}
330
13BB
100
AcDbXrecord
280
     1
102
SHADEPLOT
 70
     0
  0
XRECORD
  5
13B6
102
{ACAD_REACTORS
330
13B5
102
}
330
13B5
100
AcDbXrecord
280
     1
 40
0.18
  0
LAYOUT
  5
59
102
{ACAD_XDICTIONARY
360
227
102
}
102
{ACAD_REACTORS
330
1A
102
}
330
1A
100
AcDbPlotSettings
  1

  2
none_device
  4
ISO_A4_(210.00_x_297.00_MM)
  6

 40
7.5
 41
20.0
 42
7.5
 43
20.0
 44
210.0
 45
297.0
 46
0.0
 47
0.0
 48
0.0
 49
0.0
140
0.0
141
0.0
142
1.0
143
1.0
 70
   688
 72
     1
 73
     1
 74
     5
  7

 75
    16
147
1.0
148
0.0
149
0.0
100
AcDbLayout
  1
Layout1
 70
     1
 71
     1
 10
-20.0
 20
-7.5
 11
277.0
 21
202.5
 12
0.0
 22
0.0
 32
0.0
 14
1.000000000000000E+20
 24
1.000000000000000E+20
 34
1.000000000000000E+20
 15
-1.000000000000000E+20
 25
-1.000000000000000E+20
 35
-1.000000000000000E+20
146
0.0
 13
0.0
 23
0.0
 33
0.0
 16
1.0
 26
0.0
 36
0.0
 17
0.0
 27
1.0
 37
0.0
 76
     0
330
58
331
220
1001
ACAD_PSEXT
1000
None
1000
None
1000
Not applicable
1000
The layout will not be plotted unless a new plotter configuration name is selected.
1070
     0
  0
LAYOUT
  5
22
102
{ACAD_XDICTIONARY
360
13B7
102
}
102
{ACAD_REACTORS
330
1A
102
}
330
1A
100
AcDbPlotSettings
  1

  2
none_device
  4
ANSI_A_(8.50_x_11.00_Inches)
  6

 40
6.349999904632568
 41
19.04999923706055
 42
6.350006103515625
 43
19.04998779296875
 44
215.8999938964844
 45
279.3999938964844
 46
0.0
 47
0.0
 48
0.0
 49
0.0
140
0.0
141
0.0
142
1.0
143
2.584895464708373
 70
 11952
 72
     0
 73
     1
 74
     0
  7

 75
     0
147
0.3868628397755418
148
0.0
149
0.0
100
AcDbLayout
  1
Model
 70
     1
 71
     0
 10
0.0
 20
0.0
 11
12.0
 21
9.0
 12
0.0
 22
0.0
 32
0.0
 14
0.0
 24
0.0
 34
0.0
 15
0.0
 25
0.0
 35
0.0
146
0.0
 13
0.0
 23
0.0
 33
0.0
 16
1.0
 26
0.0
 36
0.0
 17
0.0
 27
1.0
 37
0.0
 76
     0
330
1F
331
1357
  0
MATERIAL
  5
1369
102
{ACAD_XDICTIONARY
360
136A
102
}
102
{ACAD_REACTORS
330
72
102
}
330
72
100
AcDbMaterial
  1
ByBlock
 72
     0
 43
0.0208333333333333
 43
0.0
 43
0.0
 43
0.0
 43
0.0
 43
0.0208333333333333
 43
0.0
 43
0.0
 43
0.0
 43
0.0
 43
1.0
 43
0.0
 43
0.0
 43
0.0
 43
0.0
 43
1.0
 77
     0
 47
0.0208333333333333
 47
0.0
 47
0.0
 47
0.0
 47
0.0
 47
0.0208333333333333
 47
0.0
 47
0.0
 47
0.0
 47
0.0
 47
1.0
 47
0.0
 47
0.0
 47
0.0
 47
0.0
 47
1.0
171
     0
 49
0.0208333333333333
 49
0.0
 49
0.0
 49
0.0
 49
0.0
 49
0.0208333333333333
 49
0.0
 49
0.0
 49
0.0
 49
0.0
 49
1.0
 49
0.0
 49
0.0
 49
0.0
 49
0.0
 49
1.0
175
     0
142
0.0208333333333333
142
0.0
142
0.0
142
0.0
142
0.0
142
0.0208333333333333
142
0.0
142
0.0
142
0.0
142
0.0
142
1.0
142
0.0
142
0.0
142
0.0
142
0.0
142
1.0
179
     0
144
0.0208333333333333
144
0.0
144
0.0
144
0.0
144
0.0
144
0.0208333333333333
144
0.0
144
0.0
144
0.0
144
0.0
144
1.0
144
0.0
144
0.0
144
0.0
144
0.0
144
1.0
147
0.0208333333333333
147
0.0
147
0.0
147
0.0
147
0.0
147
0.0208333333333333
147
0.0
147
0.0
147
0.0
147
0.0
147
1.0
147
0.0
147
0.0
147
0.0
147
0.0
147
1.0
  0
MATERIAL
  5
1361
102
{ACAD_XDICTIONARY
360
1362
102
}
102
{ACAD_REACTORS
330
72
102
}
330
72
100
AcDbMaterial
  1
ByLayer
 72
     0
 43
0.0208333333333333
 43
0.0
 43
0.0
 43
0.0
 43
0.0
 43
0.0208333333333333
 43
0.0
 43
0.0
 43
0.0
 43
0.0
 43
1.0
 43
0.0
 43
0.0
 43
0.0
 43
0.0
 43
1.0
 77
     0
 47
0.0208333333333333
 47
0.0
 47
0.0
 47
0.0
 47
0.0
 47
0.0208333333333333
 47
0.0
 47
0.0
 47
0.0
 47
0.0
 47
1.0
 47
0.0
 47
0.0
 47
0.0
 47
0.0
 47
1.0
171
     0
 49
0.0208333333333333
 49
0.0
 49
0.0
 49
0.0
 49
0.0
 49
0.0208333333333333
 49
0.0
 49
0.0
 49
0.0
 49
0.0
 49
1.0
 49
0.0
 49
0.0
 49
0.0
 49
0.0
 49
1.0
175
     0
142
0.0208333333333333
142
0.0
142
0.0
142
0.0
142
0.0
142
0.0208333333333333
142
0.0
142
0.0
142
0.0
142
0.0
142
1.0
142
0.0
142
0.0
142
0.0
142
0.0
142
1.0
179
     0
144
0.0208333333333333
144
0.0
144
0.0
144
0.0
144
0.0
144
0.0208333333333333
144
0.0
144
0.0
144
0.0
144
0.0
144
1.0
144
0.0
144
0.0
144
0.0
144
0.0
144
1.0
147
0.0208333333333333
147
0.0
147
0.0
147
0.0
147
0.0
147
0.0208333333333333
147
0.0
147
0.0
147
0.0
147
0.0
147
1.0
147
0.0
147
0.0
147
0.0
147
0.0
147
1.0
  0
MATERIAL
  5
1371
102
{ACAD_XDICTIONARY
360
1372
102
}
102
{ACAD_REACTORS
330
72
102
}
330
72
100
AcDbMaterial
  1
Global
 72
     0
 43
0.0208333333333333
 43
0.0
 43
0.0
 43
0.0
 43
0.0
 43
0.0208333333333333
 43
0.0
 43
0.0
 43
0.0
 43
0.0
 43
1.0
 43
0.0
 43
0.0
 43
0.0
 43
0.0
 43
1.0
 77
     0
 47
0.0208333333333333
 47
0.0
 47
0.0
 47
0.0
 47
0.0
 47
0.0208333333333333
 47
0.0
 47
0.0
 47
0.0
 47
0.0
 47
1.0
 47
0.0
 47
0.0
 47
0.0
 47
0.0
 47
1.0
171
     0
 49
0.0208333333333333
 49
0.0
 49
0.0
 49
0.0
 49
0.0
 49
0.0208333333333333
 49
0.0
 49
0.0
 49
0.0
 49
0.0
 49
1.0
 49
0.0
 49
0.0
 49
0.0
 49
0.0
 49
1.0
175
     0
142
0.0208333333333333
142
0.0
142
0.0
142
0.0
142
0.0
142
0.0208333333333333
142
0.0
142
0.0
142
0.0
142
0.0
142
1.0
142
0.0
142
0.0
142
0.0
142
0.0
142
1.0
179
     0
144
0.0208333333333333
144
0.0
144
0.0
144
0.0
144
0.0
144
0.0208333333333333
144
0.0
144
0.0
144
0.0
144
0.0
144
1.0
144
0.0
144
0.0
144
0.0
144
0.0
144
1.0
147
0.0208333333333333
147
0.0
147
0.0
147
0.0
147
0.0
147
0.0208333333333333
147
0.0
147
0.0
147
0.0
147
0.0
147
1.0
147
0.0
147
0.0
147
0.0
147
0.0
147
1.0
  0
MLEADERSTYLE
  5
13A5
102
{ACAD_XDICTIONARY
360
13B1
102
}
102
{ACAD_REACTORS
330
13A4
102
}
330
13A4
100
AcDbMLeaderStyle
170
     2
171
     1
172
     0
 90
        2
 40
0.0
 41
0.0
173
     1
 91
-1056964608
340
14
 92
       -2
290
     1
 42
0.09
291
     1
 43
0.36
  3
Standard
 44
0.18
300

342
11
174
     1
178
     6
175
     1
176
     0
 93
-1056964608
 45
0.18
292
     0
297
     0
 46
0.18
 94
-1056964608
 47
1.0
 49
1.0
140
1.0
293
     1
141
0.0
294
     1
177
     0
142
1.0
295
     0
296
     0
143
0.125
1001
ACAD_MLEADERVER
1070
     2
  0
MLINESTYLE
  5
18
102
{ACAD_REACTORS
330
17
102
}
330
17
100
AcDbMlineStyle
  2
STANDARD
 70
     0
  3

 62
   256
 51
90.0
 52
90.0
 71
     2
 49
0.5
 62
   256
  6
BYLAYER
 49
-0.5
 62
   256
  6
BYLAYER
  0
ACDBPLACEHOLDER
  5
F
102
{ACAD_REACTORS
330
E
102
}
330
E
  0
SCALE
  5
1393
102
{ACAD_REACTORS
330
1392
102
}
330
1392
100
AcDbScale
 70
     0
300
1:1
140
1.0
141
1.0
290
     1
  0
SCALE
  5
1394
102
{ACAD_REACTORS
330
1392
102
}
330
1392
100
AcDbScale
 70
     0
300
1/128" = 1'-0"
140
0.0078125
141
12.0
290
     0
  0
SCALE
  5
1395
102
{ACAD_REACTORS
330
1392
102
}
330
1392
100
AcDbScale
 70
     0
300
1/64" = 1'-0"
140
0.015625
141
12.0
290
     0
  0
SCALE
  5
1396
102
{ACAD_REACTORS
330
1392
102
}
330
1392
100
AcDbScale
 70
     0
300
1/32" = 1'-0"
140
0.03125
141
12.0
290
     0
  0
SCALE
  5
1397
102
{ACAD_REACTORS
330
1392
102
}
330
1392
100
AcDbScale
 70
     0
300
1/16" = 1'-0"
140
0.0625
141
12.0
290
     0
  0
SCALE
  5
1398
102
{ACAD_REACTORS
330
1392
102
}
330
1392
100
AcDbScale
 70
     0
300
3/32" = 1'-0"
140
0.09375
141
12.0
290
     0
  0
SCALE
  5
1399
102
{ACAD_REACTORS
330
1392
102
}
330
1392
100
AcDbScale
 70
     0
300
1/8" = 1'-0"
140
0.125
141
12.0
290
     0
  0
SCALE
  5
139A
102
{ACAD_REACTORS
330
1392
102
}
330
1392
100
AcDbScale
 70
     0
300
3/16" = 1'-0"
140
0.1875
141
12.0
290
     0
  0
SCALE
  5
139B
102
{ACAD_REACTORS
330
1392
102
}
330
1392
100
AcDbScale
 70
     0
300
1/4" = 1'-0"
140
0.25
141
12.0
290
     0
  0
SCALE
  5
139C
102
{ACAD_REACTORS
330
1392
102
}
330
1392
100
AcDbScale
 70
     0
300
3/8" = 1'-0"
140
0.375
141
12.0
290
     0
  0
SCALE
  5
139D
102
{ACAD_REACTORS
330
1392
102
}
330
1392
100
AcDbScale
 70
     0
300
1/2" = 1'-0"
140
0.5
141
12.0
290
     0
  0
SCALE
  5
139E
102
{ACAD_REACTORS
330
1392
102
}
330
1392
100
AcDbScale
 70
     0
300
3/4" = 1'-0"
140
0.75
141
12.0
290
     0
  0
SCALE
  5
139F
102
{ACAD_REACTORS
330
1392
102
}
330
1392
100
AcDbScale
 70
     0
300
1" = 1'-0"
140
1.0
141
12.0
290
     0
  0
SCALE
  5
13A0
102
{ACAD_REACTORS
330
1392
102
}
330
1392
100
AcDbScale
 70
     0
300
1-1/2" = 1'-0"
140
1.5
141
12.0
290
     0
  0
SCALE
  5
13A1
102
{ACAD_REACTORS
330
1392
102
}
330
1392
100
AcDbScale
 70
     0
300
3" = 1'-0"
140
3.0
141
12.0
290
     0
  0
SCALE
  5
13A2
102
{ACAD_REACTORS
330
1392
102
}
330
1392
100
AcDbScale
 70
     0
300
6" = 1'-0"
140
6.0
141
12.0
290
     0
  0
SCALE
  5
13A3
102
{ACAD_REACTORS
330
1392
102
}
330
1392
100
AcDbScale
 70
     0
300
1'-0" = 1'-0"
140
12.0
141
12.0
290
     0
  0
TABLESTYLE
  5
87
102
{ACAD_XDICTIONARY
360
13AF
102
}
102
{ACAD_REACTORS
330
86
102
}
330
86
100
AcDbTableStyle
  3
Standard
 70
     0
 71
     0
 40
0.06
 41
0.06
280
     0
281
     0
  7
Standard
140
0.18
170
     2
 62
     0
 63
     7
283
     0
274
    -2
284
     1
 64
     0
275
    -2
285
     1
 65
     0
276
    -2
286
     1
 66
     0
277
    -2
287
     1
 67
     0
278
    -2
288
     1
 68
     0
279
    -2
289
     1
 69
     0
  7
Standard
140
0.25
170
     5
 62
     0
 63
     7
283
     0
274
    -2
284
     1
 64
     0
275
    -2
285
     1
 65
     0
276
    -2
286
     1
 66
     0
277
    -2
287
     1
 67
     0
278
    -2
288
     1
 68
     0
279
    -2
289
     1
 69
     0
  7
Standard
140
0.18
170
     5
 62
     0
 63
     7
283
     0
274
    -2
284
     1
 64
     0
275
    -2
285
     1
 65
     0
276
    -2
286
     1
 66
     0
277
    -2
287
     1
 67
     0
278
    -2
288
     1
 68
     0
279
    -2
289
     1
 69
     0
  0
VISUALSTYLE
  5
137F
102
{ACAD_XDICTIONARY
360
13CA
102
}
102
{ACAD_REACTORS
330
1379
102
}
330
1379
100
AcDbVisualStyle
  2
2dWireframe
 70
     4
 71
     0
 72
     2
 73
     0
 90
        0
 40
-0.6
 41
-30.0
 62
     5
 63
     7
 74
     1
 91
        4
 64
     7
 65
   257
 75
     1
175
     1
 42
1.0
 92
        0
 66
   257
 43
1.0
 76
     1
 77
     6
 78
     2
 67
     7
 79
     5
170
     0
171
     0
290
     0
174
     0
 93
        1
 44
0.0
173
     0
291
     0
 45
0.0
1001
ACAD
1000
AcDbSavedByObjectVersion
1070
     0
  0
VISUALSTYLE
  5
137E
102
{ACAD_XDICTIONARY
360
13C8
102
}
102
{ACAD_REACTORS
330
1379
102
}
330
1379
100
AcDbVisualStyle
  2
Basic
 70
     7
 71
     1
 72
     0
 73
     1
 90
        0
 40
-0.6
 41
-30.0
 62
     5
 63
     7
 74
     0
 91
        4
 64
     7
 65
   257
 75
     1
175
     1
 42
1.0
 92
        8
 66
     7
 43
1.0
 76
     1
 77
     6
 78
     2
 67
     7
 79
     5
170
     0
171
     0
290
     0
174
     0
 93
        1
 44
0.0
173
     0
291
     1
 45
0.0
1001
ACAD
1000
AcDbSavedByObjectVersion
1070
     0
  0
VISUALSTYLE
  5
1385
102
{ACAD_XDICTIONARY
360
13D6
102
}
102
{ACAD_REACTORS
330
1379
102
}
330
1379
100
AcDbVisualStyle
  2
Brighten
 70
    12
 71
     2
 72
     2
 73
     0
 90
        0
 40
-0.6
 41
-30.0
 62
     5
 63
     7
 74
     1
 91
        4
 64
     7
 65
   257
 75
     1
175
     1
 42
1.0
 92
        8
 66
     7
 43
1.0
 76
     1
 77
     6
 78
     2
 67
     7
 79
     5
170
     0
171
     0
290
     0
174
     0
 93
        1
 44
50.0
173
     0
291
     1
 45
0.0
1001
ACAD
1000
AcDbSavedByObjectVersion
1070
     0
  0
VISUALSTYLE
  5
1389
102
{ACAD_XDICTIONARY
360
13DE
102
}
102
{ACAD_REACTORS
330
1379
102
}
330
1379
100
AcDbVisualStyle
  2
ColorChange
 70
    16
 71
     2
 72
     2
 73
     3
 90
        0
 40
-0.6
 41
-30.0
 62
     5
 63
     8
 74
     1
 91
        4
 64
     7
 65
   257
 75
     1
175
     1
 42
1.0
 92
        8
 66
     8
 43
1.0
 76
     1
 77
     6
 78
     2
 67
     7
 79
     5
170
     0
171
     0
290
     0
174
     0
 93
        1
 44
0.0
173
     0
291
     1
 45
0.0
1001
ACAD
1000
AcDbSavedByObjectVersion
1070
     0
  0
VISUALSTYLE
  5
1382
102
{ACAD_XDICTIONARY
360
13D0
102
}
102
{ACAD_REACTORS
330
1379
102
}
330
1379
100
AcDbVisualStyle
  2
Conceptual
 70
     9
 71
     3
 72
     2
 73
     0
 90
        0
 40
-0.6
 41
-30.0
 62
     5
 63
     7
 74
     2
 91
        2
 64
     7
 65
   257
 75
     1
175
     1
 42
179.0
 92
        8
 66
     7
 43
1.0
 76
     1
 77
     6
 78
     2
 67
     7
 79
     3
170
     0
171
     0
290
     0
174
     0
 93
        1
 44
0.0
173
     0
291
     0
 45
0.0
1001
ACAD
1000
AcDbSavedByObjectVersion
1070
     0
  0
VISUALSTYLE
  5
1384
102
{ACAD_XDICTIONARY
360
13D4
102
}
102
{ACAD_REACTORS
330
1379
102
}
330
1379
100
AcDbVisualStyle
  2
Dim
 70
    11
 71
     2
 72
     2
 73
     0
 90
        0
 40
-0.6
 41
-30.0
 62
     5
 63
     7
 74
     1
 91
        4
 64
     7
 65
   257
 75
     1
175
     1
 42
1.0
 92
        8
 66
     7
 43
1.0
 76
     1
 77
     6
 78
     2
 67
     7
 79
     5
170
     0
171
     0
290
     0
174
     0
 93
        1
 44
-50.0
173
     0
291
     1
 45
0.0
1001
ACAD
1000
AcDbSavedByObjectVersion
1070
     0
  0
VISUALSTYLE
  5
1391
102
{ACAD_XDICTIONARY
360
13EE
102
}
102
{ACAD_REACTORS
330
1379
102
}
330
1379
100
AcDbVisualStyle
  2
EdgeColorOff
 70
    22
 71
     2
 72
     2
 73
     0
 90
        0
 40
-0.6
 41
-30.0
 62
     5
 63
     7
 74
     1
 91
        4
 64
     7
 65
   257
 75
     1
175
     1
 42
1.0
 92
        8
 66
     7
 43
1.0
 76
     1
 77
     6
 78
     2
 67
     7
 79
     5
170
     0
171
     0
290
     0
174
     0
 93
        1
 44
0.0
173
     0
291
     1
 45
0.0
1001
ACAD
1000
AcDbSavedByObjectVersion
1070
     0
  0
VISUALSTYLE
  5
1388
102
{ACAD_XDICTIONARY
360
13DC
102
}
102
{ACAD_REACTORS
330
1379
102
}
330
1379
100
AcDbVisualStyle
  2
Facepattern
 70
    15
 71
     2
 72
     2
 73
     0
 90
        0
 40
-0.6
 41
-30.0
 62
     5
 63
     7
 74
     1
 91
        4
 64
     7
 65
   257
 75
     1
175
     1
 42
1.0
 92
        8
 66
     7
 43
1.0
 76
     1
 77
     6
 78
     2
 67
     7
 79
     5
170
     0
171
     0
290
     0
174
     0
 93
        1
 44
0.0
173
     0
291
     1
 45
0.0
1001
ACAD
1000
AcDbSavedByObjectVersion
1070
     0
  0
VISUALSTYLE
  5
137A
102
{ACAD_XDICTIONARY
360
13C0
102
}
102
{ACAD_REACTORS
330
1379
102
}
330
1379
100
AcDbVisualStyle
  2
Flat
 70
     0
 71
     2
 72
     1
 73
     1
 90
        2
 40
-0.6
 41
30.0
 62
     5
 63
     7
 74
     0
 91
        0
 64
     7
 65
   257
 75
     1
175
     1
 42
1.0
 92
        8
 66
     7
 43
1.0
 76
     1
 77
     6
 78
     2
 67
     7
 79
     5
170
     0
171
     0
290
     0
174
     0
 93
       13
 44
0.0
173
     0
291
     1
 45
0.0
1001
ACAD
1000
AcDbSavedByObjectVersion
1070
     0
  0
VISUALSTYLE
  5
137B
102
{ACAD_XDICTIONARY
360
13C2
102
}
102
{ACAD_REACTORS
330
1379
102
}
330
1379
100
AcDbVisualStyle
  2
FlatWithEdges
 70
     1
 71
     2
 72
     1
 73
     1
 90
        2
 40
-0.6
 41
30.0
 62
     5
 63
     7
 74
     1
 91
        0
 64
     7
 65
   257
 75
     1
175
     1
 42
1.0
 92
        0
 66
   257
 43
1.0
 76
     1
 77
     6
 78
     2
 67
     7
 79
     5
170
     0
171
     0
290
     0
174
     0
 93
       13
 44
0.0
173
     0
291
     1
 45
0.0
1001
ACAD
1000
AcDbSavedByObjectVersion
1070
     0
  0
VISUALSTYLE
  5
137C
102
{ACAD_XDICTIONARY
360
13C4
102
}
102
{ACAD_REACTORS
330
1379
102
}
330
1379
100
AcDbVisualStyle
  2
Gouraud
 70
     2
 71
     2
 72
     2
 73
     1
 90
        2
 40
-0.6
 41
30.0
 62
     5
 63
     7
 74
     0
 91
        0
 64
     7
 65
   257
 75
     1
175
     1
 42
1.0
 92
        0
 66
     7
 43
1.0
 76
     1
 77
     6
 78
     2
 67
     7
 79
     5
170
     0
171
     0
290
     0
174
     0
 93
       13
 44
0.0
173
     0
291
     1
 45
0.0
1001
ACAD
1000
AcDbSavedByObjectVersion
1070
     0
  0
VISUALSTYLE
  5
137D
102
{ACAD_XDICTIONARY
360
13C6
102
}
102
{ACAD_REACTORS
330
1379
102
}
330
1379
100
AcDbVisualStyle
  2
GouraudWithEdges
 70
     3
 71
     2
 72
     2
 73
     1
 90
        2
 40
-0.6
 41
30.0
 62
     5
 63
     7
 74
     1
 91
        0
 64
     7
 65
   257
 75
     1
175
     1
 42
1.0
 92
        0
 66
   257
 43
1.0
 76
     1
 77
     6
 78
     2
 67
     7
 79
     5
170
     0
171
     0
290
     0
174
     0
 93
       13
 44
0.0
173
     0
291
     1
 45
0.0
1001
ACAD
1000
AcDbSavedByObjectVersion
1070
     0
  0
VISUALSTYLE
  5
1381
102
{ACAD_XDICTIONARY
360
13CE
102
}
102
{ACAD_REACTORS
330
1379
102
}
330
1379
100
AcDbVisualStyle
  2
Hidden
 70
     6
 71
     1
 72
     2
 73
     2
 90
        0
 40
-0.6
 41
-30.0
 62
     5
 63
     7
 74
     2
 91
        2
 64
     7
 65
   257
 75
     2
175
     1
 42
40.0
 92
        0
 66
   257
 43
1.0
 76
     1
 77
     6
 78
     2
 67
     7
 79
     3
170
     0
171
     0
290
     0
174
     0
 93
        1
 44
0.0
173
     0
291
     0
 45
0.0
1001
ACAD
1000
AcDbSavedByObjectVersion
1070
     0
  0
VISUALSTYLE
  5
138F
102
{ACAD_XDICTIONARY
360
13EA
102
}
102
{ACAD_REACTORS
330
1379
102
}
330
1379
100
AcDbVisualStyle
  2
JitterOff
 70
    20
 71
     2
 72
     2
 73
     0
 90
        0
 40
-0.6
 41
-30.0
 62
     5
 63
     7
 74
     1
 91
        4
 64
     7
 65
   257
 75
     1
175
     1
 42
1.0
 92
       10
 66
     7
 43
1.0
 76
     1
 77
     6
 78
     2
 67
     7
 79
     5
170
     0
171
     0
290
     0
174
     0
 93
        1
 44
0.0
173
     0
291
     1
 45
0.0
1001
ACAD
1000
AcDbSavedByObjectVersion
1070
     0
  0
VISUALSTYLE
  5
1387
102
{ACAD_XDICTIONARY
360
13DA
102
}
102
{ACAD_REACTORS
330
1379
102
}
330
1379
100
AcDbVisualStyle
  2
Linepattern
 70
    14
 71
     2
 72
     2
 73
     0
 90
        0
 40
-0.6
 41
-30.0
 62
     5
 63
     7
 74
     1
 91
        4
 64
     7
 65
   257
 75
     7
175
     7
 42
1.0
 92
        8
 66
     7
 43
1.0
 76
     1
 77
     6
 78
     2
 67
     7
 79
     5
170
     0
171
     0
290
     0
174
     0
 93
        1
 44
0.0
173
     0
291
     1
 45
0.0
1001
ACAD
1000
AcDbSavedByObjectVersion
1070
     0
  0
VISUALSTYLE
  5
1390
102
{ACAD_XDICTIONARY
360
13EC
102
}
102
{ACAD_REACTORS
330
1379
102
}
330
1379
100
AcDbVisualStyle
  2
OverhangOff
 70
    21
 71
     2
 72
     2
 73
     0
 90
        0
 40
-0.6
 41
-30.0
 62
     5
 63
     7
 74
     1
 91
        4
 64
     7
 65
   257
 75
     1
175
     1
 42
1.0
 92
        9
 66
     7
 43
1.0
 76
     1
 77
     6
 78
     2
 67
     7
 79
     5
170
     0
171
     0
290
     0
174
     0
 93
        1
 44
0.0
173
     0
291
     1
 45
0.0
1001
ACAD
1000
AcDbSavedByObjectVersion
1070
     0
  0
VISUALSTYLE
  5
1383
102
{ACAD_XDICTIONARY
360
13D2
102
}
102
{ACAD_REACTORS
330
1379
102
}
330
1379
100
AcDbVisualStyle
  2
Realistic
 70
     8
 71
     2
 72
     3
 73
     0
 90
        2
 40
-0.6
 41
30.0
 62
     5
 63
     7
 74
     0
 91
        0
 64
     7
 65
   257
 75
     1
175
     1
 42
1.0
 92
        8
 66
   257
 43
1.0
 76
     1
 77
     6
 78
     2
 67
     7
 79
     3
170
     0
171
     0
290
     0
174
     0
 93
       13
 44
0.0
173
     0
291
     0
 45
0.0
1001
ACAD
1000
AcDbSavedByObjectVersion
1070
     0
  0
VISUALSTYLE
  5
138E
102
{ACAD_XDICTIONARY
360
13E8
102
}
102
{ACAD_REACTORS
330
1379
102
}
330
1379
100
AcDbVisualStyle
  2
Shaded
 70
    27
 71
     2
 72
     2
 73
     1
 90
        2
 40
-0.6
 41
30.0
 62
     5
 63
     7
 74
     0
 91
        4
 64
     7
 65
   257
 75
     1
175
     1
 42
1.0
 92
        8
 66
   257
 43
1.0
 76
     1
 77
     6
 78
     2
 67
     8
 79
     3
170
     0
171
     0
290
     0
174
     0
 93
        5
 44
0.0
173
     0
291
     0
 45
0.0
1001
ACAD
1000
AcDbSavedByObjectVersion
1070
     0
  0
VISUALSTYLE
  5
138D
102
{ACAD_XDICTIONARY
360
13E6
102
}
102
{ACAD_REACTORS
330
1379
102
}
330
1379
100
AcDbVisualStyle
  2
Shaded with edges
 70
    26
 71
     2
 72
     2
 73
     1
 90
        2
 40
-0.6
 41
30.0
 62
     5
 63
     7
 74
     1
 91
       10
 64
     7
 65
   257
 75
     2
175
     1
 42
1.0
 92
        8
 66
   257
 43
1.0
 76
     1
 77
     6
 78
     2
 67
     7
 79
     3
170
     0
171
     0
290
     0
174
     0
 93
        5
 44
0.0
173
     0
291
     0
 45
0.0
1001
ACAD
1000
AcDbSavedByObjectVersion
1070
     0
  0
VISUALSTYLE
  5
138A
102
{ACAD_XDICTIONARY
360
13E0
102
}
102
{ACAD_REACTORS
330
1379
102
}
330
1379
100
AcDbVisualStyle
  2
Shades of Gray
 70
    23
 71
     2
 72
     2
 73
     3
 90
        0
 40
-0.6
 41
-30.0
 62
     5
 63
     7
 74
     2
 91
        2
 64
     7
 65
     7
 75
     1
175
     1
 42
40.0
 92
        8
 66
     7
 43
1.0
 76
     1
 77
     6
 78
     2
 67
     7
 79
     3
170
     0
171
     0
290
     0
174
     0
 93
        1
 44
0.0
173
     0
291
     0
 45
0.0
1001
ACAD
1000
AcDbSavedByObjectVersion
1070
     0
  0
VISUALSTYLE
  5
138B
102
{ACAD_XDICTIONARY
360
13E2
102
}
102
{ACAD_REACTORS
330
1379
102
}
330
1379
100
AcDbVisualStyle
  2
Sketchy
 70
    24
 71
     1
 72
     2
 73
     2
 90
        0
 40
-0.6
 41
-30.0
 62
     5
 63
     7
 74
     2
 91
        2
 64
     7
 65
     7
 75
     1
175
     1
 42
40.0
 92
       11
 66
     7
 43
1.0
 76
     1
 77
     6
 78
     2
 67
     7
 79
     6
170
     0
171
     0
290
     0
174
     0
 93
        1
 44
0.0
173
     0
291
     0
 45
0.0
1001
ACAD
1000
AcDbSavedByObjectVersion
1070
     0
  0
VISUALSTYLE
  5
1386
102
{ACAD_XDICTIONARY
360
13D8
102
}
102
{ACAD_REACTORS
330
1379
102
}
330
1379
100
AcDbVisualStyle
  2
Thicken
 70
    13
 71
     2
 72
     2
 73
     0
 90
        0
 40
-0.6
 41
-30.0
 62
     5
 63
     7
 74
     1
 91
        4
 64
     7
 65
   257
 75
     1
175
     1
 42
1.0
 92
       12
 66
     7
 43
1.0
 76
     1
 77
     6
 78
     2
 67
     7
 79
     5
170
     0
171
     0
290
     0
174
     0
 93
        1
 44
0.0
173
     0
291
     1
 45
0.0
1001
ACAD
1000
AcDbSavedByObjectVersion
1070
     0
  0
VISUALSTYLE
  5
1380
102
{ACAD_XDICTIONARY
360
13CC
102
}
102
{ACAD_REACTORS
330
1379
102
}
330
1379
100
AcDbVisualStyle
  2
Wireframe
 70
     5
 71
     0
 72
     2
 73
     0
 90
        0
 40
-0.6
 41
-30.0
 62
     5
 63
     7
 74
     1
 91
        4
 64
     7
 65
   257
 75
     1
175
     1
 42
1.0
 92
        0
 66
   257
 43
1.0
 76
     1
 77
     6
 78
     2
 67
     7
 79
     3
170
     0
171
     0
290
     0
174
     0
 93
        1
 44
0.0
173
     0
291
     0
 45
0.0
1001
ACAD
1000
AcDbSavedByObjectVersion
1070
     0
  0
VISUALSTYLE
  5
138C
102
{ACAD_XDICTIONARY
360
13E4
102
}
102
{ACAD_REACTORS
330
1379
102
}
330
1379
100
AcDbVisualStyle
  2
X-Ray
 70
    25
 71
     2
 72
     2
 73
     1
 90
        1
 40
0.5
 41
-30.0
 62
     5
 63
     7
 74
     1
 91
        0
 64
     7
 65
   257
 75
     1
175
     1
 42
1.0
 92
        8
 66
     7
 43
1.0
 76
     1
 77
     6
 78
     2
 67
     7
 79
     3
170
     0
171
     0
290
     0
174
     0
 93
       13
 44
0.0
173
     0
291
     0
 45
0.0
1001
ACAD
1000
AcDbSavedByObjectVersion
1070
     0
  0
DICTIONARYVAR
  5
13AA
102
{ACAD_REACTORS
330
66
102
}
330
66
100
DictionaryVariables
280
     0
  1
1:1
  0
DICTIONARYVAR
  5
13A9
102
{ACAD_REACTORS
330
66
102
}
330
66
100
DictionaryVariables
280
     0
  1
STANDARD
  0
DICTIONARYVAR
  5
1FB
102
{ACAD_REACTORS
330
66
102
}
330
66
100
DictionaryVariables
280
     0
  1
STANDARD
  0
DICTIONARYVAR
  5
67
102
{ACAD_REACTORS
330
66
102
}
330
66
100
DictionaryVariables
280
     0
  1
2
  0
DICTIONARYVAR
  5
6B
102
{ACAD_REACTORS
330
66
102
}
330
66
100
DictionaryVariables
280
     0
  1
1
  0
DICTIONARYVAR
  5
13AC
102
{ACAD_REACTORS
330
66
102
}
330
66
100
DictionaryVariables
280
     0
  1
0
  0
DICTIONARYVAR
  5
135F
102
{ACAD_REACTORS
330
66
102
}
330
66
100
DictionaryVariables
280
     0
  1

  0
DICTIONARYVAR
  5
13AB
102
{ACAD_REACTORS
330
66
102
}
330
66
100
DictionaryVariables
280
     0
  1
127
  0
DICTIONARYVAR
  5
13AD
102
{ACAD_REACTORS
330
66
102
}
330
66
100
DictionaryVariables
280
     0
  1
2
  0
XRECORD
  5
433
102
{ACAD_REACTORS
330
432
102
}
330
432
100
AcDbXrecord
280
     1
  0
DICTIONARY
  5
227
330
59
100
AcDbDictionary
280
     1
281
     1
  3
ACAD_XREC_ROUNDTRIP
360
13B9
  3
ADSK_XREC_LAYOUTTHUMBNAIL
360
228
  0
DICTIONARY
  5
13B7
330
22
100
AcDbDictionary
280
     1
281
     1
  3
ACAD_XREC_ROUNDTRIP
360
13B8
  0
DICTIONARY
  5
136A
330
1369
100
AcDbDictionary
280
     1
281
     1
  3
ACAD_XREC_ROUNDTRIP
360
13BE
  3
BUMPTILE
360
136C
  3
DIFFUSETILE
360
136B
  3
OPACITYTILE
360
136F
  3
REFLECTIONTILE
360
136E
  3
REFRACTIONTILE
360
1370
  3
SPECULARTILE
360
136D
  0
DICTIONARY
  5
1362
330
1361
100
AcDbDictionary
280
     1
281
     1
  3
ACAD_XREC_ROUNDTRIP
360
13BD
  3
BUMPTILE
360
1364
  3
DIFFUSETILE
360
1363
  3
OPACITYTILE
360
1367
  3
REFLECTIONTILE
360
1366
  3
REFRACTIONTILE
360
1368
  3
SPECULARTILE
360
1365
  0
DICTIONARY
  5
1372
330
1371
100
AcDbDictionary
280
     1
281
     1
  3
ACAD_XREC_ROUNDTRIP
360
13BF
  3
BUMPTILE
360
1374
  3
DIFFUSETILE
360
1373
  3
OPACITYTILE
360
1377
  3
REFLECTIONTILE
360
1376
  3
REFRACTIONTILE
360
1378
  3
SPECULARTILE
360
1375
  0
DICTIONARY
  5
13B1
330
13A5
100
AcDbDictionary
280
     1
281
     1
  3
ACAD_XREC_ROUNDTRIP
360
13B2
  0
DICTIONARY
  5
13AF
330
87
100
AcDbDictionary
280
     1
281
     1
  3
ACAD_ROUNDTRIP_2008_TABLESTYLE_CELLSTYLEMAP
360
13B0
  3
ACAD_XREC_ROUNDTRIP
360
13BA
  0
DICTIONARY
  5
13CA
330
137F
100
AcDbDictionary
280
     1
281
     1
  3
ACAD_XREC_ROUNDTRIP
360
13CB
  0
DICTIONARY
  5
13C8
330
137E
100
AcDbDictionary
280
     1
281
     1
  3
ACAD_XREC_ROUNDTRIP
360
13C9
  0
DICTIONARY
  5
13D6
330
1385
100
AcDbDictionary
280
     1
281
     1
  3
ACAD_XREC_ROUNDTRIP
360
13D7
  0
DICTIONARY
  5
13DE
330
1389
100
AcDbDictionary
280
     1
281
     1
  3
ACAD_XREC_ROUNDTRIP
360
13DF
  0
DICTIONARY
  5
13D0
330
1382
100
AcDbDictionary
280
     1
281
     1
  3
ACAD_XREC_ROUNDTRIP
360
13D1
  0
DICTIONARY
  5
13D4
330
1384
100
AcDbDictionary
280
     1
281
     1
  3
ACAD_XREC_ROUNDTRIP
360
13D5
  0
DICTIONARY
  5
13EE
330
1391
100
AcDbDictionary
280
     1
281
     1
  3
ACAD_XREC_ROUNDTRIP
360
13EF
  0
DICTIONARY
  5
13DC
330
1388
100
AcDbDictionary
280
     1
281
     1
  3
ACAD_XREC_ROUNDTRIP
360
13DD
  0
DICTIONARY
  5
13C0
330
137A
100
AcDbDictionary
280
     1
281
     1
  3
ACAD_XREC_ROUNDTRIP
360
13C1
  0
DICTIONARY
  5
13C2
330
137B
100
AcDbDictionary
280
     1
281
     1
  3
ACAD_XREC_ROUNDTRIP
360
13C3
  0
DICTIONARY
  5
13C4
330
137C
100
AcDbDictionary
280
     1
281
     1
  3
ACAD_XREC_ROUNDTRIP
360
13C5
  0
DICTIONARY
  5
13C6
330
137D
100
AcDbDictionary
280
     1
281
     1
  3
ACAD_XREC_ROUNDTRIP
360
13C7
  0
DICTIONARY
  5
13CE
330
1381
100
AcDbDictionary
280
     1
281
     1
  3
ACAD_XREC_ROUNDTRIP
360
13CF
  0
DICTIONARY
  5
13EA
330
138F
100
AcDbDictionary
280
     1
281
     1
  3
ACAD_XREC_ROUNDTRIP
360
13EB
  0
DICTIONARY
  5
13DA
330
1387
100
AcDbDictionary
280
     1
281
     1
  3
ACAD_XREC_ROUNDTRIP
360
13DB
  0
DICTIONARY
  5
13EC
330
1390
100
AcDbDictionary
280
     1
281
     1
  3
ACAD_XREC_ROUNDTRIP
360
13ED
  0
DICTIONARY
  5
13D2
330
1383
100
AcDbDictionary
280
     1
281
     1
  3
ACAD_XREC_ROUNDTRIP
360
13D3
  0
DICTIONARY
  5
13E8
330
138E
100
AcDbDictionary
280
     1
281
     1
  3
ACAD_XREC_ROUNDTRIP
360
13E9
  0
DICTIONARY
  5
13E6
330
138D
100
AcDbDictionary
280
     1
281
     1
  3
ACAD_XREC_ROUNDTRIP
360
13E7
  0
DICTIONARY
  5
13E0
330
138A
100
AcDbDictionary
280
     1
281
     1
  3
ACAD_XREC_ROUNDTRIP
360
13E1
  0
DICTIONARY
  5
13E2
330
138B
100
AcDbDictionary
280
     1
281
     1
  3
ACAD_XREC_ROUNDTRIP
360
13E3
  0
DICTIONARY
  5
13D8
330
1386
100
AcDbDictionary
280
     1
281
     1
  3
ACAD_XREC_ROUNDTRIP
360
13D9
  0
DICTIONARY
  5
13CC
330
1380
100
AcDbDictionary
280
     1
281
     1
  3
ACAD_XREC_ROUNDTRIP
360
13CD
  0
DICTIONARY
  5
13E4
330
138C
100
AcDbDictionary
280
     1
281
     1
  3
ACAD_XREC_ROUNDTRIP
360
13E5
  0
XRECORD
  5
13B9
102
{ACAD_REACTORS
330
227
102
}
330
227
100
AcDbXrecord
280
     1
102
SHADEPLOT
 70
     0
102
SHADEPLOTRESLEVEL
 70
     2
102
SHADEPLOTCUSTOMDPI
 70
   300
  0
XRECORD
  5
228
102
{ACAD_REACTORS
330
227
102
}
330
227
100
AcDbXrecord
280
     1
310
28000000B40000007F00000001000800000000004C59000000000000000000000001000000000000FFFFFF0000000000FFFFFF000000000000000000000000000000000000000000000000000000000000000000330000006600000099000000CC000000FF00000000330000333300006633000099330000CC330000FF3300
310
0000660000336600006666000099660000CC660000FF66000000990000339900006699000099990000CC990000FF99000000CC000033CC000066CC000099CC0000CCCC0000FFCC000000FF000033FF000066FF000099FF0000CCFF0000FFFF000000003300330033006600330099003300CC003300FF003300003333003333
310
33006633330099333300CC333300FF33330000663300336633006666330099663300CC663300FF66330000993300339933006699330099993300CC993300FF99330000CC330033CC330066CC330099CC3300CCCC3300FFCC330000FF330033FF330066FF330099FF3300CCFF3300FFFF330000006600330066006600660099
310
006600CC006600FF00660000336600333366006633660099336600CC336600FF33660000666600336666006666660099666600CC666600FF66660000996600339966006699660099996600CC996600FF99660000CC660033CC660066CC660099CC6600CCCC6600FFCC660000FF660033FF660066FF660099FF6600CCFF6600
310
FFFF660000009900330099006600990099009900CC009900FF00990000339900333399006633990099339900CC339900FF33990000669900336699006666990099669900CC669900FF66990000999900339999006699990099999900CC999900FF99990000CC990033CC990066CC990099CC9900CCCC9900FFCC990000FF99
310
0033FF990066FF990099FF9900CCFF9900FFFF99000000CC003300CC006600CC009900CC00CC00CC00FF00CC000033CC003333CC006633CC009933CC00CC33CC00FF33CC000066CC003366CC006666CC009966CC00CC66CC00FF66CC000099CC003399CC006699CC009999CC00CC99CC00FF99CC0000CCCC0033CCCC0066CC
310
CC0099CCCC00CCCCCC00FFCCCC0000FFCC0033FFCC0066FFCC0099FFCC00CCFFCC00FFFFCC000000FF003300FF006600FF009900FF00CC00FF00FF00FF000033FF003333FF006633FF009933FF00CC33FF00FF33FF000066FF003366FF006666FF009966FF00CC66FF00FF66FF000099FF003399FF006699FF009999FF00CC
310
99FF00FF99FF0000CCFF0033CCFF0066CCFF0099CCFF00CCCCFF00FFCCFF0000FFFF0033FFFF0066FFFF0099FFFF00CCFFFF00FFFFFF00000000000D0D0D001A1A1A00282828003535350043434300505050005D5D5D006B6B6B00787878008686860093939300A1A1A100AEAEAE00BBBBBB00C9C9C900D6D6D600E4E4E400
310
F1F1F100FFFFFF0000000000000000000000000000000000000000000000000000000000000000000000000000000000E2E2E2E2E2E2E2E2E2E2E2E2E2E2E2E2E2E2E2E2E2E2E2E2E2E2E2E2E2E2E2E2E2E2E2E2E2E2E2E2E2E2E2E2E2E2E2E2E2E2E2E2E2E2E2E2E2E2E2E2E2E2E2E2E2E2E2E2E2E2E2E2E2E2E2E2E2E2E2
310
E2E2E2E2E2E2E2E2E2E2E2E2E2E2E2E2E2E2E2E2E2E2E2E2E2E2E2E2E2E2E2E2E2E2E2E2E2E2E2E2E2E2E2E2E2E2E2E2E2E2E2E2E2E2E2E2E2E2E2E2E2E2E2E2E2E2E2E2E2E2E2E2E2E2E2E2E2E2E2E2E2E2E2E2E2E2E2E2E2E2E2E2E2E2E2E2E2E2E2E2E2E2F5F5F5F5F5F5F5F5F5F5F5F5F5F5F5F5F5F5F5F5F5F5F5F5F5
310
F5F5F5F5F5F5F5F5F5F5F5F5F5F5F5F5F5F5F5F5F5F5F5F5F5F5F5F5F5F5F5F5F5F5F5F5F5F5F5F5F5F5F5F5F5F5F5F5F5F5F5F5F5F5F5F5F5F5F5F5F5F5F5F5F5F5F5F5F5F5F5F5F5F5F5F5F5F5F5F5F5F5F5F5F5F5F5F5F5F5F5F5F5F5F5F5F5F5F5F5F5F5F5F5F5F5F5F5F5F5F5F5F5F5F5F5F5F5F5F5F5F5F5F5F5F5F5
310
F5F5F5F5F5F5F5F5F5F5F5F5F5F5F5F5F5F5F5F5F5F5F5F5F5E2E2E2F5F5F5F5F5F5F5F5F5F5F5F5F5F5F5F5F5F5F5F5F5F5F5F5F5F5F5F5F5F5F5F5F5F5F5F5F5F5F5F5F5F5F5F5F5F5F5F5F5F5F5F5F5F5F5F5F5F5F5F5F5F5F5F5F5F5F5F5F5F5F5F5F5F5F5F5F5F5F5F5F5F5F5F5F5F5F5F5F5F5F5F5F5F5F5F5F5F5F5
310
F5F5F5F5F5F5F5F5F5F5F5F5F5F5F5F5F5F5F5F5F5F5F5F5F5F5F5F5F5F5F5F5F5F5F5F5F5F5F5F5F5F5F5F5F5F5F5F5F5F5F5F5F5F5F5F5F5F5F5F5F5F5F5F5F5F5F5F5F5F5F5F5F5F5F5F5F5F5E2E2E2F5F5F5F5F5F5F5F5F5F5F5F5F5F5F5F5F5F5F5F5F5F5F5F5F5F5F5F5F5F5F5F5F5F5F5F5F5F5F5F5F5F5F5F5F5F5
310
F5F5F5F5F5F5F5F5F5F5F5F5F5F5F5F5F5F5F5F5F5F5F5F5F5F5F5F5F5F5F5F5F5F5F5F5F5F5F5F5F5F5F5F5F5F5F5F5F5F5F5F5F5F5F5F5F5F5F5F5F5F5F5F5F5F5F5F5F5F5F5F5F5F5F5F5F5F5F5F5F5F5F5F5F5F5F5F5F5F5F5F5F5F5F5F5F5F5F5F5F5F5F5F5F5F5F5F5F5F5F5F5F5F5F5F5F5F5F5F5F5F5F5F5F5F5F5
310
F5F5F5F5E2E2E2F5F5F5F5F5F5F5F5F5F5F5F5F5F5F5F5F5F5F5F5F5F5F5F5F5F5F5F5F5F5F5F5F5F5F5F5F5F5F5F5F5F5F5F5F5F5F5F5F5F5F5F5F5F5F5F5F5F5F5F5F5F5F5F5F5F5F5F5F5F5F5F5F5F5F5F5F5F5F5F5F5F5F5F5F5F5F5F5F5F5F5F5F5F5F5F5F5F5F5F5F5F5F5F5F5F5F5F5F5F5F5F5F5F5F5F5F5F5F5F5
310
F5F5F5F5F5F5F5F5F5F5F5F5F5F5F5F5F5F5F5F5F5F5F5F5F5F5F5F5F5F5F5F5F5F5F5F5F5F5F5F5F5F5F5F5F5F5F5F5F5F5F5F5F5F5F5F5F5E2E2E2F5F5F5F5F5F5F5F5F5F5F5E2E2E2E2E2E2E2E2E2F5F5F5F5F5F5F5F5F5E2E2E2E2E2E2E2E2E2E2E2E2E2E2E2E2F5F5F5F5F5F5F5F5F5F5E2E2E2E2E2E2E2E2E2E2E2E2
310
E2E2E2E2F5F5F5F5F5F5F5F5F5E2E2E2E2E2E2E2E2E2E2E2E2E2E2E2E2E2F5F5F5F5F5F5F5F5F5E2E2E2E2E2E2E2E2E2E2E2E2E2E2E2E2F5F5F5F5F5F5F5F5F5F5E2E2E2E2E2E2E2E2E2E2E2E2E2E2E2E2F5F5F5F5F5F5F5F5F5E2E2E2E2E2E2E2E2E2F5F5F5F5F5F5F5F5F5F5F5E2E2E2F5F5F5F5F5F5F5F5F5F5F5E2F5F5
310
F5F5F5F5F5F5F5F5F5F5F5F5F5F5F5F5F5F5F5F5F5F5F5F5F5F5F5F5F5F5F5F5F5F5F5F5F5F5F5F5F5F5F5F5F5F5F5F5F5F5F5F5F5F5F5F5F5F5F5F5F5F5F5F5F5F5F5F5F5F5F5F5F5F5F5F5F5F5F5F5F5F5F5F5F5F5F5F5F5F5F5F5F5F5F5F5F5F5F5F5F5F5F5F5F5F5F5F5F5F5F5F5F5F5F5F5F5F5F5F5F5F5F5F5F5F5F5
310
F5F5F5F5F5F5F5F5F5F5F5F5F5F5F5F5F5F5F5F5F5F5F5F5E2F5F5F5F5F5F5F5F5F5F5F5E2E2E2F5F5F5F5F5F5F5F5F5F5F5E2F5F5F5F5F5F5F5F5F5F5F5F5F5F5F5F5F5F5F5F5F5F5F5F5F5F5F5F5F5F5F5F5F5F5F5F5F5F5F5F5F5F5F5F5F5F5F5F5F5F5F5F5F5F5F5F5F5F5F5F5F5F5F5F5F5F5F5F5F5F5F5F5F5F5F5F5
310
F5F5F5F5F5F5F5F5F5F5F5F5F5F5F5F5F5F5F5F5F5F5F5F5F5F5F5F5F5F5F5F5F5F5F5F5F5F5F5F5F5F5F5F5F5F5F5F5F5F5F5F5F5F5F5F5F5F5F5F5F5F5F5F5F5F5F5F5F5F5F5F5F5F5F5F5F5E2F5F5F5F5F5F5F5F5F5F5F5E2E2E2F5F5F5F5F5F5F5F5F5F5F5E2F5F5F5F5F5F5F5F5F5F5F5F5F5F5F5F5F5F5F5F5F5F5F5
310
F5F5F5F5F5F5F5F5F5F5F5F5F5F5F5F5F5F5F5F5F5F5F5F5F5F5F5F5F5F5F5F5F5F5F5F5F5F5F5F5F5F5F5F5F5F5F5F5F5F5F5F5F5F5F5F5F5F5F5F5F5F5F5F5F5F5F5F5F5F5F5F5F5F5F5F5F5F5F5F5F5F5F5F5F5F5F5F5F5F5F5F5F5F5F5F5F5F5F5F5F5F5F5F5F5F5F5F5F5F5F5F5F5F5F5F5F5F5F5F5F5F5F5F5F5F5F5
310
F5F5F5E2F5F5F5F5F5F5F5F5F5F5F5E2E2E2F5F5F5F5F5F5F5F5F5F5F5E2F5F5F5F5F5F5F5F5F5F5F5F5F5F5F5F5F5F5F5F5F5F5F5F5F5F5F5F5F5F5F5F5F5F5F5F5F5F5F5F5F5F5F5F5F5F5F5F5F5F5F5F5F5F5F5F5F5F5F5F5F5F5F5F5F5F5F5F5F5F5F5F5F5F5F5F5F5F5F5F5F5F5F5F5F5F5F5F5F5F5F5F5F5F5F5F5F5
310
F5F5F5F5F5F5F5F5F5F5F5F5F5F5F5F5F5F5F5F5F5F5F5F5F5F5F5F5F5F5F5F5F5F5F5F5F5F5F5F5F5F5F5F5F5F5F5F5F5F5F5F5F5F5F5F5E2F5F5F5F5F5F5F5F5F5F5F5E2E2E2F5F5F5F5F5F5F5F5F5F5F5E2F5F5F5F5F5F5F5F5F5F5F5F5F5F5F5F5F5F5F5F5F5F5F5F5F5F5F5F5F5F5F5F5F5F5F5F5F5F5F5F5F5F5F5F5
310
F5F5F5F5F5F5F5F5F5F5F5F5F5F5F5F5F5F5F5F5F5F5F5F5F5F5F5F5F5F5F5F5F5F5F5F5F5F5F5F5F5F5F5F5F5F5F5F5F5F5F5F5F5F5F5F5F5F5F5F5F5F5F5F5F5F5F5F5F5F5F5F5F5F5F5F5F5F5F5F5F5F5F5F5F5F5F5F5F5F5F5F5F5F5F5F5F5F5F5F5F5F5F5F5F5F5F5F5F5E2F5F5F5F5F5F5F5F5F5F5F5E2E2E2F5F5F5
310
F5F5F5F5F5F5F5F5E2F5F5F5F5F5F5F5F5F5F5F5F5F5F5F5F5F5F5F5F5F5F5F5F5F5F5F5F5F5F5F5F5F5F5F5F5F5F5F5F5F5F5F5F5F5F5F5F5F5F5F5F5F5F5F5F5F5F5F5F5F5F5F5F5F5F5F5F5F5F5F5F5F5F5F5F5F5F5F5F5F5F5F5F5F5F5F5F5F5F5F5F5F5F5F5F5F5F5F5F5F5F5F5F5F5F5F5F5F5F5F5F5F5F5F5F5F5F5
310
F5F5F5F5F5F5F5F5F5F5F5F5F5F5F5F5F5F5F5F5F5F5F5F5F5F5F5F5F5F5F5F5F5F5F5E2F5F5F5F5F5F5F5F5F5F5F5E2E2E2F5F5F5F5F5F5F5F5F5F5F5E2F5F5F5F5F5F5F5F5F5F5F5F5F5F5F5F5F5F5F5F5F5F5F5F5F5F5F5F5F5F5F5F5F5F5F5F5F5F5F5F5F5F5F5F5F5F5F5F5F5F5F5F5F5F5F5F5F5F5F5F5F5F5F5F5F5
310
F5F5F5F5F5F5F5F5F5F5F5F5F5F5F5F5F5F5F5F5F5F5F5F5F5F5F5F5F5F5F5F5F5F5F5F5F5F5F5F5F5F5F5F5F5F5F5F5F5F5F5F5F5F5F5F5F5F5F5F5F5F5F5F5F5F5F5F5F5F5F5F5F5F5F5F5F5F5F5F5F5F5F5F5F5F5F5F5E2F5F5F5F5F5F5F5F5F5F5F5E2E2E2F5F5F5F5F5F5F5F5F5F5F5F5F5F5F5F5F5F5F5F5F5F5F5F5
310
F5F5F5F5F5F5F5F5F5F5F5F5F5F5F5F5F5F5F5F5F5F5F5F5F5F5F5F5F5F5F5F5F5F5F5F5F5F5F5F5F5F5F5F5F5F5F5F5F5F5F5F5F5F5F5F5F5F5F5F5F5F5F5F5F5F5F5F5F5F5F5F5F5F5F5F5F5F5F5F5F5F5F5F5F5F5F5F5F5F5F5F5F5F5F5F5F5F5F5F5F5F5F5F5F5F5F5F5F5F5F5F5F5F5F5F5F5F5F5F5F5F5F5F5F5F5F5
310
F5F5F5F5F5F5F5F5F5F5F5F5F5F5F5F5F5F5F5F5F5F5F5F5F5F5E2E2E2F5F5F5F5F5F5F5F5F5F5F5F5F5F5F5F5F5F5F5F5F5F5F5F5F5F5F5F5F5F5F5F5F5F5F5F5F5F5F5F5F5F5F5F5F5F5F5F5F5F5F5F5F5F5F5F5F5F5F5F5F5F5F5F5F5F5F5F5F5F5F5F5F5F5F5F5F5F5F5F5F5F5F5F5F5F5F5F5F5F5F5F5F5F5F5F5F5F5
310
F5F5F5F5F5F5F5F5F5F5F5F5F5F5F5F5F5F5F5F5F5F5F5F5F5F5F5F5F5F5F5F5F5F5F5F5F5F5F5F5F5F5F5F5F5F5F5F5F5F5F5F5F5F5F5F5F5F5F5F5F5F5F5F5F5F5F5F5F5F5F5F5F5F5F5F5F5F5F5E2E2E2F5F5F5F5F5F5F5F5F5F5F5F5F5F5F5F5F5F5F5F5F5F5F5F5F5F5F5F5F5F5F5F5F5F5F5F5F5F5F5F5F5F5F5F5F5
310
F5F5F5F5F5F5F5F5F5F5F5F5F5F5F5F5F5F5F5F5F5F5F5F5F5F5F5F5F5F5F5F5F5F5F5F5F5F5F5F5F5F5F5F5F5F5F5F5F5F5F5F5F5F5F5F5F5F5F5F5F5F5F5F5F5F5F5F5F5F5F5F5F5F5F5F5F5F5F5F5F5F5F5F5F5F5F5F5F5F5F5F5F5F5F5F5F5F5F5F5F5F5F5F5F5F5F5F5F5F5F5F5F5F5F5F5F5F5F5F5F5F5F5F5F5F5F5
310
F5F5F5F5F5E2E2E2F5F5F5F5F5F5F5F5F5F5F5F5F5F5F5F5F5F5F5F5F5F5F5F5F5F5F5F5F5F5F5F5F5F5F5F5F5F5F5F5F5F5F5F5F5F5F5F5F5F5F5F5F5F5F5F5F5F5F5F5F5F5F5F5F5F5F5F5F5F5F5F5F5F5F5F5F5F5F5F5F5F5F5F5F5F5F5F5F5F5F5F5F5F5F5F5F5F5F5F5F5F5F5F5F5F5F5F5F5F5F5F5F5F5F5F5F5F5F5
310
F5F5F5F5F5F5F5F5F5F5F5F5F5F5F5F5F5F5F5F5F5F5F5F5F5F5F5F5F5F5F5F5F5F5F5F5F5F5F5F5F5F5F5F5F5F5F5F5F5F5F5F5F5F5F5F5F5F5E2E2E2F5F5F5F5F5F5F5F5F5F5F5F5F5F5F5F5F5F5F5F5F5F5F5F5F5F5F5F5F5F5F5F5F5F5F5F5F5F5F5F5F5F5F5F5F5F5F5F5F5F5F5F5F5F5F5F5F5F5F5F5F5F5F5F5F5F5
310
F5F5F5F5F5F5F5F5F5F5F5F5F5F5F5F5F5F5F5F5F5F5F5F5F5F5F5F5F5F5F5F5F5F5F5F5F5F5F5F5F5F5F5F5F5F5F5F5F5F5F5F5F5F5F5F5F5F5F5F5F5F5F5F5F5F5F5F5F5F5F5F5F5F5F5F5F5F5F5F5F5F5F5F5F5F5F5F5F5F5F5F5F5F5F5F5F5F5F5F5F5F5F5F5F5F5F5F5F5F5F5E2E2E2F5F5F5F5F5F5F5F5F5F5F5F5F5
310
F5F5F5F5F5F5F5F5F5F5F5F5F5F5F5F5F5F5F5F5F5F5F5F5F5F5F5F5F5F5F5F5F5F5F5F5F5F5F5F5F5F5F5F5F5F5F5F5F5F5F5F5F5F5F5F5F5F5F5F5F5F5F5F5F5F5F5F5F5F5F5F5F5F5F5F5F5F5F5F5F5F5F5F5F5F5F5F5F5F5F5F5F5F5F5F5F5F5F5F5F5F5F5F5F5F5F5F5F5F5F5F5F5F5F5F5F5F5F5F5F5F5F5F5F5F5F5
310
F5F5F5F5F5F5F5F5F5F5F5F5F5F5F5F5F5F5F5F5F5F5F5F5F5F5F5F5F5F5F5F5F5F5F5F5F5E2E2E2F5F5F5F5F5F5F5F5F5F5F5F5F5F5F5F5F5F5F5F5F5F5F5F5F5F5F5F5F5F5F5F5F5F5F5F5F5F5F5F5F5F5F5F5F5F5F5F5F5F5F5F5F5F5F5F5F5F5F5F5F5F5F5F5F5F5F5F5F5F5F5F5F5F5F5F5F5F5F5F5F5F5F5F5F5F5F5
310
F5F5F5F5F5F5F5F5F5F5F5F5F5F5F5F5F5F5F5F5F5F5F5F5F5F5F5F5F5F5F5F5F5F5F5F5F5F5F5F5F5F5F5F5F5F5F5F5F5F5F5F5F5F5F5F5F5F5F5F5F5F5F5F5F5F5F5F5F5F5F5F5F5F5F5F5F5F5F5F5F5F5F5F5F5F5F5F5F5F5E2E2E2F5F5F5F5F5F5F5F5F5F5F5F5F5F5F5F5F5F5F5F5F5F5F5F5F5F5F5F5F5F5F5F5F5F5
310
F5F5F5F5F5F5F5F5F5F5F5F5F5F5F5F5F5F5F5F5F5F5F5F5F5F5F5F5F5F5F5F5F5F5F5F5F5F5F5F5F5F5F5F5F5F5F5F5F5F5F5F5F5F5F5F5F5F5F5F5F5F5F5F5F5F5F5F5F5F5F5F5F5F5F5F5F5F5F5F5F5F5F5F5F5F5F5F5F5F5F5F5F5F5F5F5F5F5F5F5F5F5F5F5F5F5F5F5F5F5F5F5F5F5F5F5F5F5F5F5F5F5F5F5F5F5F5
310
F5F5F5F5F5F5F5F5F5F5F5F5F5F5F5F5E2E2E2F5F5F5F5F5F5F5F5F5F5F5E2F5F5F5F5F5F5F5F5F5F5F5F5F5F5F5F5F5F5F5F5F5F5F5F5F5F5F5F5F5F5F5F5F5F5F5F5F5F5F5F5F5F5F5F5F5F5F5F5F5F5F5F5F5F5F5F5F5F5F5F5F5F5F5F5F5F5F5F5F5F5F5F5F5F5F5F5F5F5F5F5F5F5F5F5F5F5F5F5F5F5F5F5F5F5F5F5
310
F5F5F5F5F5F5F5F5F5F5F5F5F5F5F5F5F5F5F5F5F5F5F5F5F5F5F5F5F5F5F5F5F5F5F5F5F5F5F5F5F5F5F5F5F5F5F5F5F5F5F5F5F5F5F5F5F5E2F5F5F5F5F5F5F5F5F5F5F5E2E2E2F5F5F5F5F5F5F5F5F5F5F5E2F5F5F5F5F5F5F5F5F5F5F5F5F5F5F5F5F5F5F5F5F5F5F5F5F5F5F5F5F5F5F5F5F5F5F5F5F5F5F5F5F5F5F5
310
F5F5F5F5F5F5F5F5F5F5F5F5F5F5F5F5F5F5F5F5F5F5F5F5F5F5F5F5F5F5F5F5F5F5F5F5F5F5F5F5F5F5F5F5F5F5F5F5F5F5F5F5F5F5F5F5F5F5F5F5F5F5F5F5F5F5F5F5F5F5F5F5F5F5F5F5F5F5F5F5F5F5F5F5F5F5F5F5F5F5F5F5F5F5F5F5F5F5F5F5F5F5F5F5F5F5F5F5F5F5E2F5F5F5F5F5F5F5F5F5F5F5E2E2E2F5F5
310
F5F5F5F5F5F5F5F5F5E2F5F5F5F5F5F5F5F5F5F5F5F5F5F5F5F5F5F5F5F5F5F5F5F5F5F5F5F5F5F5F5F5F5F5F5F5F5F5F5F5F5F5F5F5F5F5F5F5F5F5F5F5F5F5F5F5F5F5F5F5F5F5F5F5F5F5F5F5F5F5F5F5F5F5F5F5F5F5F5F5F5F5F5F5F5F5F5F5F5F5F5F5F5F5F5F5F5F5F5F5F5F5F5F5F5F5F5F5F5F5F5F5F5F5F5F5F5
310
F5F5F5F5F5F5F5F5F5F5F5F5F5F5F5F5F5F5F5F5F5F5F5F5F5F5F5F5F5F5F5F5F5F5F5F5E2F5F5F5F5F5F5F5F5F5F5F5E2E2E2F5F5F5F5F5F5F5F5F5F5F5E2F5F5F5F5F5F5F5F5F5F5F5F5F5F5F5F5F5F5F5F5F5F5F5F5F5F5F5F5F5F5F5F5F5F5F5F5F5F5F5F5F5F5F5F5F5F5F5F5F5F5F5F5F5F5F5F5F5F5F5F5F5F5F5F5
310
F5F5F5F5F5F5F5F5F5F5F5F5F5F5F5F5F5F5F5F5F5F5F5F5F5F5F5F5F5F5F5F5F5F5F5F5F5F5F5F5F5F5F5F5F5F5F5F5F5F5F5F5F5F5F5F5F5F5F5F5F5F5F5F5F5F5F5F5F5F5F5F5F5F5F5F5F5F5F5F5F5F5F5F5F5F5F5F5F5E2F5F5F5F5F5F5F5F5F5F5F5E2E2E2F5F5F5F5F5F5F5F5F5F5F5E2F5F5F5F5F5F5F5F5F5F5F5
310
F5F5F5F5F5F5F5F5F5F5F5F5F5F5F5F5F5F5F5F5F5F5F5F5F5F5F5F5F5F5F5F5F5F5F5F5F5F5F5F5F5F5F5F5F5F5F5F5F5F5F5F5F5F5F5F5F5F5F5F5F5F5F5F5F5F5F5F5F5F5F5F5F5F5F5F5F5F5F5F5F5F5F5F5F5F5F5F5F5F5F5F5F5F5F5F5F5F5F5F5F5F5F5F5F5F5F5F5F5F5F5F5F5F5F5F5F5F5F5F5F5F5F5F5F5F5F5
310
F5F5F5F5F5F5F5F5F5F5F5F5F5F5F5E2F5F5F5F5F5F5F5F5F5F5F5E2E2E2F5F5F5F5F5F5F5F5F5F5F5E2F5F5F5F5F5F5F5F5F5F5F5F5F5F5F5F5F5F5F5F5F5F5F5F5F5F5F5F5F5F5F5F5F5F5F5F5F5F5F5F5F5F5F5F5F5F5F5F5F5F5F5F5F5F5F5F5F5F5F5F5F5F5F5F5F5F5F5F5F5F5F5F5F5F5F5F5F5F5F5F5F5F5F5F5F5
310
F5F5F5F5F5F5F5F5F5F5F5F5F5F5F5F5F5F5F5F5F5F5F5F5F5F5F5F5F5F5F5F5F5F5F5F5F5F5F5F5F5F5F5F5F5F5F5F5F5F5F5F5F5F5F5F5F5F5F5F5F5F5F5F5F5F5F5F5E2F5F5F5F5F5F5F5F5F5F5F5E2E2E2F5F5F5F5F5F5F5F5F5F5F5E2F5F5F5F5F5F5F5F5F5F5F5F5F5F5F5F5F5F5F5F5F5F5F5F5F5F5F5F5F5F5F5F5
310
F5F5F5F5F5F5F5F5F5F5F5F5F5F5F5F5F5F5F5F5F5F5F5F5F5F5F5F5F5F5F5F5F5F5F5F5F5F5F5F5F5F5F5F5F5F5F5F5F5F5F5F5F5F5F5F5F5F5F5F5F5F5F5F5F5F5F5F5F5F5F5F5F5F5F5F5F5F5F5F5F5F5F5F5F5F5F5F5F5F5F5F5F5F5F5F5F5F5F5F5F5F5F5F5F5F5F5F5F5F5F5F5F5F5F5F5F5F5F5F5F5E2F5F5F5F5F5
310
F5F5F5F5F5F5E2E2E2F5F5F5F5F5F5F5F5F5F5F5E2F5F5F5F5F5F5F5F5F5F5F5F5F5F5F5F5F5F5F5F5F5F5F5F5F5F5F5F5F5F5F5F5F5F5F5F5F5F5F5F5F5F5F5F5F5F5F5F5F5F5F5F5F5F5F5F5F5F5F5F5F5F5F5F5F5F5F5F5F5F5F5F5F5F5F5F5F5F5F5F5F5F5F5F5F5F5F5F5F5F5F5F5F5F5F5F5F5F5F5F5F5F5F5F5F5F5
310
F5F5F5F5F5F5F5F5F5F5F5F5F5F5F5F5F5F5F5F5F5F5F5F5F5F5F5F5F5F5F5F5F5F5F5F5F5F5F5F5F5F5F5F5F5F5F5E2F5F5F5F5F5F5F5F5F5F5F5E2E2E2F5F5F5F5F5F5F5F5F5F5F5E2F5F5F5F5F5F5F5F5F5F5F5F5F5F5F5F5F5F5F5F5F5F5F5F5F5F5F5F5F5F5F5F5F5F5F5F5F5F5F5F5F5F5F5F5F5F5F5F5F5F5F5F5F5
310
F5F5F5F5F5F5F5F5F5F5F5F5F5F5F5F5F5F5F5F5F5F5F5F5F5F5F5F5F5F5F5F5F5F5F5F5F5F5F5F5F5F5F5F5F5F5F5F5F5F5F5F5F5F5F5F5F5F5F5F5F5F5F5F5F5F5F5F5F5F5F5F5F5F5F5F5F5F5F5F5F5F5F5F5F5F5F5F5F5F5F5F5F5F5F5F5F5F5F5F5E2F5F5F5F5F5F5F5F5F5F5F5E2E2E2F5F5F5F5F5F5F5F5F5F5F5E2
310
F5F5F5F5F5F5F5F5F5F5F5F5F5F5F5F5F5F5F5F5F5F5F5F5F5F5F5F5F5F5F5F5F5F5F5F5F5F5F5F5F5F5F5F5F5F5F5F5F5F5F5F5F5F5F5F5F5F5F5F5F5F5F5F5F5F5F5F5F5F5F5F5F5F5F5F5F5F5F5F5F5F5F5F5F5F5F5F5F5F5F5F5F5F5F5F5F5F5F5F5F5F5F5F5F5F5F5F5F5F5F5F5F5F5F5F5F5F5F5F5F5F5F5F5F5F5F5
310
F5F5F5F5F5F5F5F5F5F5F5F5F5F5F5F5F5F5F5F5F5F5F5F5F5F5E2F5F5F5F5F5F5F5F5F5F5F5E2E2E2F5F5F5F5F5F5F5F5F5F5F5E2F5F5F5F5F5F5F5F5F5F5F5F5F5F5F5F5F5F5F5F5F5F5F5F5F5F5F5F5F5F5F5F5F5F5F5F5F5F5F5F5F5F5F5F5F5F5F5F5F5F5F5F5F5F5F5F5F5F5F5F5F5F5F5F5F5F5F5F5F5F5F5F5F5F5
310
F5F5F5F5F5F5F5F5F5F5F5F5F5F5F5F5F5F5F5F5F5F5F5F5F5F5F5F5F5F5F5F5F5F5F5F5F5F5F5F5F5F5F5F5F5F5F5F5F5F5F5F5F5F5F5F5F5F5F5F5F5F5F5F5F5F5F5F5F5F5F5F5F5F5F5F5F5F5F5E2F5F5F5F5F5F5F5F5F5F5F5E2E2E2F5F5F5F5F5F5F5F5F5F5F5E2F5F5F5F5F5F5F5F5F5F5F5F5F5F5F5F5F5F5F5F5F5
310
F5F5F5F5F5F5F5F5F5F5F5F5F5F5F5F5F5F5F5F5F5F5F5F5F5F5F5F5F5F5F5F5F5F5F5F5F5F5F5F5F5F5F5F5F5F5F5F5F5F5F5F5F5F5F5F5F5F5F5F5F5F5F5F5F5F5F5F5F5F5F5F5F5F5F5F5F5F5F5F5F5F5F5F5F5F5F5F5F5F5F5F5F5F5F5F5F5F5F5F5F5F5F5F5F5F5F5F5F5F5F5F5F5F5F5F5F5F5F5F5F5F5F5F5F5F5F5
310
F5F5F5F5F5E2F5F5F5F5F5F5F5F5F5F5F5E2E2E2F5F5F5F5F5F5F5F5F5F5F5E2F5F5F5F5F5F5F5F5F5F5F5F5F5F5F5F5F5F5F5F5F5F5F5F5F5F5F5F5F5F5F5F5F5F5F5F5F5F5F5F5F5F5F5F5F5F5F5F5F5F5F5F5F5F5F5F5F5F5F5F5F5F5F5F5F5F5F5F5F5F5F5F5F5F5F5F5F5F5F5F5F5F5F5F5F5F5F5F5F5F5F5F5F5F5F5
310
F5F5F5F5F5F5F5F5F5F5F5F5F5F5F5F5F5F5F5F5F5F5F5F5F5F5F5F5F5F5F5F5F5F5F5F5F5F5F5F5F5F5F5F5F5F5F5F5F5F5F5F5F5F5F5F5F5F5E2F5F5F5F5F5F5F5F5F5F5F5E2E2E2F5F5F5F5F5F5F5F5F5F5F5E2F5F5F5F5F5F5F5F5F5F5F5F5F5F5F5F5F5F5F5F5F5F5F5F5F5F5F5F5F5F5F5F5F5F5F5F5F5F5F5F5F5F5
310
F5F5F5F5F5F5F5F5F5F5F5F5F5F5F5F5F5F5F5F5F5F5F5F5F5F5F5F5F5F5F5F5F5F5F5F5F5F5F5F5F5F5F5F5F5F5F5F5F5F5F5F5F5F5F5F5F5F5F5F5F5F5F5F5F5F5F5F5F5F5F5F5F5F5F5F5F5F5F5F5F5F5F5F5F5F5F5F5F5F5F5F5F5F5F5F5F5F5F5F5F5F5F5F5F5F5F5F5F5F5F5E2F5F5F5F5F5F5F5F5F5F5F5E2E2E2F5
310
F5F5F5F5F5F5F5F5F5F5E2F5F5F5F5F5F5F5F5F5F5F5F5F5F5F5F5F5F5F5F5F5F5F5F5F5F5F5F5F5F5F5F5F5F5F5F5F5F5F5F5F5F5F5F5F5F5F5F5F5F5F5F5F5F5F5F5F5F5F5F5F5F5F5F5F5F5F5F5F5F5F5F5F5F5F5F5F5F5F5F5F5F5F5F5F5F5F5F5F5F5F5F5F5F5F5F5F5F5F5F5F5F5F5F5F5F5F5F5F5F5F5F5F5F5F5F5
310
F5F5F5F5F5F5F5F5F5F5F5F5F5F5F5F5F5F5F5F5F5F5F5F5F5F5F5F5F5F5F5F5F5F5F5F5F5E2F5F5F5F5F5F5F5F5F5F5F5E2E2E2F5F5F5F5F5F5F5F5F5F5F5F5F5F5F5F5F5F5F5F5F5F5F5F5F5F5F5F5F5F5F5F5F5F5F5F5F5F5F5F5F5F5F5F5F5F5F5F5F5F5F5F5F5F5F5F5F5F5F5F5F5F5F5F5F5F5F5F5F5F5F5F5F5F5F5
310
F5F5F5F5F5F5F5F5F5F5F5F5F5F5F5F5F5F5F5F5F5F5F5F5F5F5F5F5F5F5F5F5F5F5F5F5F5F5F5F5F5F5F5F5F5F5F5F5F5F5F5F5F5F5F5F5F5F5F5F5F5F5F5F5F5F5F5F5F5F5F5F5F5F5F5F5F5F5F5F5F5F5F5F5F5F5F5F5F5F5F5F5F5F5F5F5F5F5F5F5F5F5E2E2E2F5F5F5F5F5F5F5F5F5F5F5F5F5F5F5F5F5F5F5F5F5F5
310
F5F5F5F5F5F5F5F5F5F5F5F5F5F5F5F5F5F5F5F5F5F5F5F5F5F5F5F5F5F5F5F5F5F5F5F5F5F5F5F5F5F5F5F5F5F5F5F5F5F5F5F5F5F5F5F5F5F5F5F5F5F5F5F5F5F5F5F5F5F5F5F5F5F5F5F5F5F5F5F5F5F5F5F5F5F5F5F5F5F5F5F5F5F5F5F5F5F5F5F5F5F5F5F5F5F5F5F5F5F5F5F5F5F5F5F5F5F5F5F5F5F5F5F5F5F5F5
310
F5F5F5F5F5F5F5F5F5F5F5F5F5F5F5F5F5F5F5F5F5F5F5F5F5F5F5F5E2E2E2F5F5F5F5F5F5F5F5F5F5F5F5F5F5F5F5F5F5F5F5F5F5F5F5F5F5F5F5F5F5F5F5F5F5F5F5F5F5F5F5F5F5F5F5F5F5F5F5F5F5F5F5F5F5F5F5F5F5F5F5F5F5F5F5F5F5F5F5F5F5F5F5F5F5F5F5F5F5F5F5F5F5F5F5F5F5F5F5F5F5F5F5F5F5F5F5
310
F5F5F5F5F5F5F5F5F5F5F5F5F5F5F5F5F5F5F5F5F5F5F5F5F5F5F5F5F5F5F5F5F5F5F5F5F5F5F5F5F5F5F5F5F5F5F5F5F5F5F5F5F5F5F5F5F5F5F5F5F5F5F5F5F5F5F5F5F5F5F5F5F5F5F5F5F5F5F5F5F5E2E2E2F5F5F5F5F5F5F5F5F5F5F5F5F5F5F5F5F5F5F5F5F5F5F5F5F5F5F5F5F5F5F5F5F5F5F5F5F5F5F5F5F5F5F5
310
F5F5F5F5F5F5F5F5F5F5F5F5F5F5F5F5F5F5F5F5F5F5F5F5F5F5F5F5F5F5F5F5F5F5F5F5F5F5F5F5F5F5F5F5F5F5F5F5F5F5F5F5F5F5F5F5F5F5F5F5F5F5F5F5F5F5F5F5F5F5F5F5F5F5F5F5F5F5F5F5F5F5F5F5F5F5F5F5F5F5F5F5F5F5F5F5F5F5F5F5F5F5F5F5F5F5F5F5F5F5F5F5F5F5F5F5F5F5F5F5F5F5F5F5F5F5F5
310
F5F5F5F5F5F5F5E2E2E2F5F5F5F5F5F5F5F5F5F5F5F5F5F5F5F5F5F5F5F5F5F5F5F5F5F5F5F5F5F5F5F5F5F5F5F5F5F5F5F5F5F5F5F5F5F5F5F5F5F5F5F5F5F5F5F5F5F5F5F5F5F5F5F5F5F5F5F5F5F5F5F5F5F5F5F5F5F5F5F5F5F5F5F5F5F5F5F5F5F5F5F5F5F5F5F5F5F5F5F5F5F5F5F5F5F5F5F5F5F5F5F5F5F5F5F5F5
310
F5F5F5F5F5F5F5F5F5F5F5F5F5F5F5F5F5F5F5F5F5F5F5F5F5F5F5F5F5F5F5F5F5F5F5F5F5F5F5F5F5F5F5F5F5F5F5F5F5F5F5F5F5F5F5F5F5F5F5F5E2E2E2F5F5F5F5F5F5F5F5F5F5F5F5F5F5F5F5F5F5F5F5F5F5F5F5F5F5F5F5F5F5F5F5F5F5F5F5F5F5F5F5F5F5F5F5F5F5F5F5F5F5F5F5F5F5F5F5F5F5F5F5F5F5F5F5
310
F5F5F5F5F5F5F5F5F5F5F5F5F5F5F5F5F5F5F5F5F5F5F5F5F5F5F5F5F5F5F5F5F5F5F5F5F5F5F5F5F5F5F5F5F5F5F5F5F5F5F5F5F5F5F5F5F5F5F5F5F5F5F5F5F5F5F5F5F5F5F5F5F5F5F5F5F5F5F5F5F5F5F5F5F5F5F5F5F5F5F5F5F5F5F5F5F5F5F5F5F5F5F5F5F5F5F5F5F5F5F5F5F5E2E2E2F5F5F5F5F5F5F5F5F5F5F5
310
F5F5F5F5F5F5F5F5F5F5F5F5F5F5F5F5F5F5F5F5F5F5F5F5F5F5F5F5F5F5F5F5F5F5F5F5F5F5F5F5F5F5F5F5F5F5F5F5F5F5F5F5F5F5F5F5F5F5F5F5F5F5F5F5F5F5F5F5F5F5F5F5F5F5F5F5F5F5F5F5F5F5F5F5F5F5F5F5F5F5F5F5F5F5F5F5F5F5F5F5F5F5F5F5F5F5F5F5F5F5F5F5F5F5F5F5F5F5F5F5F5F5F5F5F5F5F5
310
F5F5F5F5F5F5F5F5F5F5F5F5F5F5F5F5F5F5F5F5F5F5F5F5F5F5F5F5F5F5F5F5F5F5F5F5F5F5F5E2E2E2F5F5F5F5F5F5F5F5F5F5F5F5F5F5F5F5F5F5F5F5F5F5F5F5F5F5F5F5F5F5F5F5F5F5F5F5F5F5F5F5F5F5F5F5F5F5F5F5F5F5F5F5F5F5F5F5F5F5F5F5F5F5F5F5F5F5F5F5F5F5F5F5F5F5F5F5F5F5F5F5F5F5F5F5F5
310
F5F5F5F5F5F5F5F5F5F5F5F5F5F5F5F5F5F5F5F5F5F5F5F5F5F5F5F5F5F5F5F5F5F5F5F5F5F5F5F5F5F5F5F5F5F5F5F5F5F5F5F5F5F5F5F5F5F5F5F5F5F5F5F5F5F5F5F5F5F5F5F5F5F5F5F5F5F5F5F5F5F5F5F5F5F5F5F5F5F5F5F5E2E2E2F5F5F5F5F5F5F5F5F5F5F5E2F5F5F5F5F5F5F5F5F5F5F5F5F5F5F5F5F5F5F5F5
310
F5F5F5F5F5F5F5F5F5F5F5F5F5F5F5F5F5F5F5F5F5F5F5F5F5F5F5F5F5F5F5F5F5F5F5F5F5F5F5F5F5F5F5F5F5F5F5F5F5F5F5F5F5F5F5F5F5F5F5F5F5F5F5F5F5F5F5F5F5F5F5F5F5F5F5F5F5F5F5F5F5F5F5F5F5F5F5F5F5F5F5F5F5F5F5F5F5F5F5F5F5F5F5F5F5F5F5F5F5F5F5F5F5F5F5F5F5F5F5F5F5F5F5F5F5F5F5
310
F5F5F5F5F5F5E2F5F5F5F5F5F5F5F5F5F5F5E2E2E2F5F5F5F5F5F5F5F5F5F5F5E2F5F5F5F5F5F5F5F5F5F5F5F5F5F5F5F5F5F5F5F5F5F5F5F5F5F5F5F5F5F5F5F5F5F5F5F5F5F5F5F5F5F5F5F5F5F5F5F5F5F5F5F5F5F5F5F5F5F5F5F5F5F5F5F5F5F5F5F5F5F5F5F5F5F5F5F5F5F5F5F5F5F5F5F5F5F5F5F5F5F5F5F5F5F5
310
F5F5F5F5F5F5F5F5F5F5F5F5F5F5F5F5F5F5F5F5F5F5F5F5F5F5F5F5F5F5F5F5F5F5F5F5F5F5F5F5F5F5F5F5F5F5F5F5F5F5F5F5F5F5F5F5F5F5F5E2F5F5F5F5F5F5F5F5F5F5F5E2E2E2F5F5F5F5F5F5F5F5F5F5F5E2F5F5F5F5F5F5F5F5F5F5F5F5F5F5F5F5F5F5F5F5F5F5F5F5F5F5F5F5F5F5F5F5F5F5F5F5F5F5F5F5F5
310
F5F5F5F5F5F5F5F5F5F5F5F5F5F5F5F5F5F5F5F5F5F5F5F5F5F5F5F5F5F5F5F5F5F5F5F5F5F5F5F5F5F5F5F5F5F5F5F5F5F5F5F5F5F5F5F5F5F5F5F5F5F5F5F5F5F5F5F5F5F5F5F5F5F5F5F5F5F5F5F5F5F5F5F5F5F5F5F5F5F5F5F5F5F5F5F5F5F5F5F5F5F5F5F5F5F5F5F5F5F5F5F5E2F5F5F5F5F5F5F5F5F5F5F5E2E2E2
310
F5F5F5F5F5F5F5F5F5F5F5E2F5F5F5F5F5F5F5F5F5F5F5F5F5F5F5F5F5F5F5F5F5F5F5F5F5F5F5F5F5F5F5F5F5F5F5F5F5F5F5F5F5F5F5F5F5F5F5F5F5F5F5F5F5F5F5F5F5F5F5F5F5F5F5F5F5F5F5F5F5F5F5F5F5F5F5F5F5F5F5F5F5F5F5F5F5F5F5F5F5F5F5F5F5F5F5F5F5F5F5F5F5F5F5F5F5F5F5F5F5F5F5F5F5F5F5
310
F5F5F5F5F5F5F5F5F5F5F5F5F5F5F5F5F5F5F5F5F5F5F5F5F5F5F5F5F5F5F5F5F5F5F5F5F5F5E2F5F5F5F5F5F5F5F5F5F5F5E2E2E2F5F5F5F5F5F5F5F5F5F5F5E2F5F5F5F5F5F5F5F5F5F5F5F5F5F5F5F5F5F5F5F5F5F5F5F5F5F5F5F5F5F5F5F5F5F5F5F5F5F5F5F5F5F5F5F5F5F5F5F5F5F5F5F5F5F5F5F5F5F5F5F5F5F5
310
F5F5F5F5F5F5F5F5F5F5F5F5F5F5F5F5F5F5F5F5F5F5F5F5F5F5F5F5F5F5F5F5F5F5F5F5F5F5F5F5F5F5F5F5F5F5F5F5F5F5F5F5F5F5F5F5F5F5F5F5F5F5F5F5F5F5F5F5F5F5F5F5F5F5F5F5F5F5F5F5F5F5F5F5F5F5F5F5F5F5F5E2F5F5F5F5F5F5F5F5F5F5F5E2E2E2F5F5F5F5F5F5F5F5F5F5F5E2F5F5F5F5F5F5F5F5F5
310
F5F5F5F5F5F5F5F5F5F5F5F5F5F5F5F5F5F5F5F5F5F5F5F5F5F5F5F5F5F5F5F5F5F5F5F5F5F5F5F5F5F5F5F5F5F5F5F5F5F5F5F5F5F5F5F5F5F5F5F5F5F5F5F5F5F5F5F5F5F5F5F5F5F5F5F5F5F5F5F5F5F5F5F5F5F5F5F5F5F5F5F5F5F5F5F5F5F5F5F5F5F5F5F5F5F5F5F5F5F5F5F5F5F5F5F5F5F5F5F5F5F5F5F5F5F5F5
310
F5F5F5F5F5F5F5F5F5F5F5F5F5F5F5F5F5E2F5F5F5F5F5F5F5F5F5F5F5E2E2E2F5F5F5F5F5F5F5F5F5F5F5E2F5F5F5F5F5F5F5F5F5F5F5F5F5F5F5F5F5F5F5F5F5F5F5F5F5F5F5F5F5F5F5F5F5F5F5F5F5F5F5F5F5F5F5F5F5F5F5F5F5F5F5F5F5F5F5F5F5F5F5F5F5F5F5F5F5F5F5F5F5F5F5F5F5F5F5F5F5F5F5F5F5F5F5
310
F5F5F5F5F5F5F5F5F5F5F5F5F5F5F5F5F5F5F5F5F5F5F5F5F5F5F5F5F5F5F5F5F5F5F5F5F5F5F5F5F5F5F5F5F5F5F5F5F5F5F5F5F5F5F5F5F5F5F5F5F5F5F5F5F5F5F5F5F5F5E2F5F5F5F5F5F5F5F5F5F5F5E2E2E2F5F5F5F5F5F5F5F5F5F5F5E2F5F5F5F5F5F5F5F5F5F5F5F5F5F5F5F5F5F5F5F5F5F5F5F5F5F5F5F5F5F5
310
F5F5F5F5F5F5F5F5F5F5F5F5F5F5F5F5F5F5F5F5F5F5F5F5F5F5F5F5F5F5F5F5F5F5F5F5F5F5F5F5F5F5F5F5F5F5F5F5F5F5F5F5F5F5F5F5F5F5F5F5F5F5F5F5F5F5F5F5F5F5F5F5F5F5F5F5F5F5F5F5F5F5F5F5F5F5F5F5F5F5F5F5F5F5F5F5F5F5F5F5F5F5F5F5F5F5F5F5F5F5F5F5F5F5F5F5F5F5F5F5F5F5F5E2F5F5F5
310
F5F5F5F5F5F5F5F5E2E2E2F5F5F5F5F5F5F5F5F5F5F5E2F5F5F5F5F5F5F5F5F5F5F5F5F5F5F5F5F5F5F5F5F5F5F5F5F5F5F5F5F5F5F5F5F5F5F5F5F5F5F5F5F5F5F5F5F5F5F5F5F5F5F5F5F5F5F5F5F5F5F5F5F5F5F5F5F5F5F5F5F5F5F5F5F5F5F5F5F5F5F5F5F5F5F5F5F5F5F5F5F5F5F5F5F5F5F5F5F5F5F5F5F5F5F5F5
310
F5F5F5F5F5F5F5F5F5F5F5F5F5F5F5F5F5F5F5F5F5F5F5F5F5F5F5F5F5F5F5F5F5F5F5F5F5F5F5F5F5F5F5F5F5F5F5F5F5E2F5F5F5F5F5F5F5F5F5F5F5E2E2E2F5F5F5F5F5F5F5F5F5F5F5E2F5F5F5F5F5F5F5F5F5F5F5F5F5F5F5F5F5F5F5F5F5F5F5F5F5F5F5F5F5F5F5F5F5F5F5F5F5F5F5F5F5F5F5F5F5F5F5F5F5F5F5
310
F5F5F5F5F5F5F5F5F5F5F5F5F5F5F5F5F5F5F5F5F5F5F5F5F5F5F5F5F5F5F5F5F5F5F5F5F5F5F5F5F5F5F5F5F5F5F5F5F5F5F5F5F5F5F5F5F5F5F5F5F5F5F5F5F5F5F5F5F5F5F5F5F5F5F5F5F5F5F5F5F5F5F5F5F5F5F5F5F5F5F5F5F5F5F5F5F5F5F5F5F5F5E2F5F5F5F5F5F5F5F5F5F5F5E2E2E2F5F5F5F5F5F5F5F5F5F5
310
F5E2F5F5F5F5F5F5F5F5F5F5F5F5F5F5F5F5F5F5F5F5F5F5F5F5F5F5F5F5F5F5F5F5F5F5F5F5F5F5F5F5F5F5F5F5F5F5F5F5F5F5F5F5F5F5F5F5F5F5F5F5F5F5F5F5F5F5F5F5F5F5F5F5F5F5F5F5F5F5F5F5F5F5F5F5F5F5F5F5F5F5F5F5F5F5F5F5F5F5F5F5F5F5F5F5F5F5F5F5F5F5F5F5F5F5F5F5F5F5F5F5F5F5F5F5F5
310
F5F5F5F5F5F5F5F5F5F5F5F5F5F5F5F5F5F5F5F5F5F5F5F5F5F5F5F5E2F5F5F5F5F5F5F5F5F5F5F5E2E2E2F5F5F5F5F5F5F5F5F5F5F5E2F5F5F5F5F5F5F5F5F5F5F5F5F5F5F5F5F5F5F5F5F5F5F5F5F5F5F5F5F5F5F5F5F5F5F5F5F5F5F5F5F5F5F5F5F5F5F5F5F5F5F5F5F5F5F5F5F5F5F5F5F5F5F5F5F5F5F5F5F5F5F5F5
310
F5F5F5F5F5F5F5F5F5F5F5F5F5F5F5F5F5F5F5F5F5F5F5F5F5F5F5F5F5F5F5F5F5F5F5F5F5F5F5F5F5F5F5F5F5F5F5F5F5F5F5F5F5F5F5F5F5F5F5F5F5F5F5F5F5F5F5F5F5F5F5F5F5F5F5F5F5F5F5F5F5E2F5F5F5F5F5F5F5F5F5F5F5E2E2E2F5F5F5F5F5F5F5F5F5F5F5E2F5F5F5F5F5F5F5F5F5F5F5F5F5F5F5F5F5F5F5
310
F5F5F5F5F5F5F5F5F5F5F5F5F5F5F5F5F5F5F5F5F5F5F5F5F5F5F5F5F5F5F5F5F5F5F5F5F5F5F5F5F5F5F5F5F5F5F5F5F5F5F5F5F5F5F5F5F5F5F5F5F5F5F5F5F5F5F5F5F5F5F5F5F5F5F5F5F5F5F5F5F5F5F5F5F5F5F5F5F5F5F5F5F5F5F5F5F5F5F5F5F5F5F5F5F5F5F5F5F5F5F5F5F5F5F5F5F5F5F5F5F5F5F5F5F5F5F5
310
F5F5F5F5F5F5F5E2F5F5F5F5F5F5F5F5F5F5F5E2E2E2F5F5F5F5F5F5F5F5F5F5F5E2F5F5F5F5F5F5F5F5F5F5F5F5F5F5F5F5F5F5F5F5F5F5F5F5F5F5F5F5F5F5F5F5F5F5F5F5F5F5F5F5F5F5F5F5F5F5F5F5F5F5F5F5F5F5F5F5F5F5F5F5F5F5F5F5F5F5F5F5F5F5F5F5F5F5F5F5F5F5F5F5F5F5F5F5F5F5F5F5F5F5F5F5F5
310
F5F5F5F5F5F5F5F5F5F5F5F5F5F5F5F5F5F5F5F5F5F5F5F5F5F5F5F5F5F5F5F5F5F5F5F5F5F5F5F5F5F5F5F5F5F5F5F5F5F5F5F5F5F5F5F5F5F5F5F5E2F5F5F5F5F5F5F5F5F5F5F5E2E2E2F5F5F5F5F5F5F5F5F5F5F5E2F5F5F5F5F5F5F5F5F5F5F5F5F5F5F5F5F5F5F5F5F5F5F5F5F5F5F5F5F5F5F5F5F5F5F5F5F5F5F5F5
310
F5F5F5F5F5F5F5F5F5F5F5F5F5F5F5F5F5F5F5F5F5F5F5F5F5F5F5F5F5F5F5F5F5F5F5F5F5F5F5F5F5F5F5F5F5F5F5F5F5F5F5F5F5F5F5F5F5F5F5F5F5F5F5F5F5F5F5F5F5F5F5F5F5F5F5F5F5F5F5F5F5F5F5F5F5F5F5F5F5F5F5F5F5F5F5F5F5F5F5F5F5F5F5F5F5F5F5F5F5F5F5F5F5E2F5F5F5F5F5F5F5F5F5F5F5E2E2
310
E2F5F5F5F5F5F5F5F5F5F5F5F5F5F5F5F5F5F5F5F5F5F5F5F5F5F5F5F5F5F5F5F5F5F5F5F5F5F5F5F5F5F5F5F5F5F5F5F5F5F5F5F5F5F5F5F5F5F5F5F5F5F5F5F5F5F5F5F5F5F5F5F5F5F5F5F5F5F5F5F5F5F5F5F5F5F5F5F5F5F5F5F5F5F5F5F5F5F5F5F5F5F5F5F5F5F5F5F5F5F5F5F5F5F5F5F5F5F5F5F5F5F5F5F5F5F5
310
F5F5F5F5F5F5F5F5F5F5F5F5F5F5F5F5F5F5F5F5F5F5F5F5F5F5F5F5F5F5F5F5F5F5F5F5F5F5F5F5F5F5F5F5F5F5F5F5F5F5F5E2E2E2F5F5F5F5F5F5F5F5F5F5F5F5F5F5F5F5F5F5F5F5F5F5F5F5F5F5F5F5F5F5F5F5F5F5F5F5F5F5F5F5F5F5F5F5F5F5F5F5F5F5F5F5F5F5F5F5F5F5F5F5F5F5F5F5F5F5F5F5F5F5F5F5F5
310
F5F5F5F5F5F5F5F5F5F5F5F5F5F5F5F5F5F5F5F5F5F5F5F5F5F5F5F5F5F5F5F5F5F5F5F5F5F5F5F5F5F5F5F5F5F5F5F5F5F5F5F5F5F5F5F5F5F5F5F5F5F5F5F5F5F5F5F5F5F5F5F5F5F5F5F5F5F5F5F5F5F5F5F5F5F5F5F5F5F5F5F5F5F5F5F5F5F5F5F5F5F5F5F5E2E2E2F5F5F5F5F5F5F5F5F5F5F5F5F5F5F5F5F5F5F5F5
310
F5F5F5F5F5F5F5F5F5F5F5F5F5F5F5F5F5F5F5F5F5F5F5F5F5F5F5F5F5F5F5F5F5F5F5F5F5F5F5F5F5F5F5F5F5F5F5F5F5F5F5F5F5F5F5F5F5F5F5F5F5F5F5F5F5F5F5F5F5F5F5F5F5F5F5F5F5F5F5F5F5F5F5F5F5F5F5F5F5F5F5F5F5F5F5F5F5F5F5F5F5F5F5F5F5F5F5F5F5F5F5F5F5F5F5F5F5F5F5F5F5F5F5F5F5F5F5
310
F5F5F5F5F5F5F5F5F5F5F5F5F5F5F5F5F5F5F5F5F5F5F5F5F5F5F5F5F5F5E2E2E2F5F5F5F5F5F5F5F5F5F5F5F5F5F5F5F5F5F5F5F5F5F5F5F5F5F5F5F5F5F5F5F5F5F5F5F5F5F5F5F5F5F5F5F5F5F5F5F5F5F5F5F5F5F5F5F5F5F5F5F5F5F5F5F5F5F5F5F5F5F5F5F5F5F5F5F5F5F5F5F5F5F5F5F5F5F5F5F5F5F5F5F5F5F5
310
F5F5F5F5F5F5F5F5F5F5F5F5F5F5F5F5F5F5F5F5F5F5F5F5F5F5F5F5F5F5F5F5F5F5F5F5F5F5F5F5F5F5F5F5F5F5F5F5F5F5F5F5F5F5F5F5F5F5F5F5F5F5F5F5F5F5F5F5F5F5F5F5F5F5F5F5F5F5F5F5F5F5F5E2E2E2F5F5F5F5F5F5F5F5F5F5F5F5F5F5F5F5F5F5F5F5F5F5F5F5F5F5F5F5F5F5F5F5F5F5F5F5F5F5F5F5F5
310
F5F5F5F5F5F5F5F5F5F5F5F5F5F5F5F5F5F5F5F5F5F5F5F5F5F5F5F5F5F5F5F5F5F5F5F5F5F5F5F5F5F5F5F5F5F5F5F5F5F5F5F5F5F5F5F5F5F5F5F5F5F5F5F5F5F5F5F5F5F5F5F5F5F5F5F5F5F5F5F5F5F5F5F5F5F5F5F5F5F5F5F5F5F5F5F5F5F5F5F5F5F5F5F5F5F5F5F5F5F5F5F5F5F5F5F5F5F5F5F5F5F5F5F5F5F5F5
310
F5F5F5F5F5F5F5F5F5E2E2E2F5F5F5F5F5F5F5F5F5F5F5F5F5F5F5F5F5F5F5F5F5F5F5F5F5F5F5F5F5F5F5F5F5F5F5F5F5F5F5F5F5F5F5F5F5F5F5F5F5F5F5F5F5F5F5F5F5F5F5F5F5F5F5F5F5F5F5F5F5F5F5F5F5F5F5F5F5F5F5F5F5F5F5F5F5F5F5F5F5F5F5F5F5F5F5F5F5F5F5F5F5F5F5F5F5F5F5F5F5F5F5F5F5F5F5
310
F5F5F5F5F5F5F5F5F5F5F5F5F5F5F5F5F5F5F5F5F5F5F5F5F5F5F5F5F5F5F5F5F5F5F5F5F5F5F5F5F5F5F5F5F5F5F5F5F5F5F5F5F5F5F5F5F5F5F5F5F5F5E2E2E2F5F5F5F5F5F5F5F5F5F5F5F5F5F5F5F5F5F5F5F5F5F5F5F5F5F5F5F5F5F5F5F5F5F5F5F5F5F5F5F5F5F5F5F5F5F5F5F5F5F5F5F5F5F5F5F5F5F5F5F5F5F5
310
F5F5F5F5F5F5F5F5F5F5F5F5F5F5F5F5F5F5F5F5F5F5F5F5F5F5F5F5F5F5F5F5F5F5F5F5F5F5F5F5F5F5F5F5F5F5F5F5F5F5F5F5F5F5F5F5F5F5F5F5F5F5F5F5F5F5F5F5F5F5F5F5F5F5F5F5F5F5F5F5F5F5F5F5F5F5F5F5F5F5F5F5F5F5F5F5F5F5F5F5F5F5F5F5F5F5F5F5F5F5F5F5F5F5F5E2E2E2F5F5F5F5F5F5F5F5F5
310
F5F5F5F5F5F5F5F5F5F5F5F5F5F5F5F5F5F5F5F5F5F5F5F5F5F5F5F5F5F5F5F5F5F5F5F5F5F5F5F5F5F5F5F5F5F5F5F5F5F5F5F5F5F5F5F5F5F5F5F5F5F5F5F5F5F5F5F5F5F5F5F5F5F5F5F5F5F5F5F5F5F5F5F5F5F5F5F5F5F5F5F5F5F5F5F5F5F5F5F5F5F5F5F5F5F5F5F5F5F5F5F5F5F5F5F5F5F5F5F5F5F5F5F5F5F5F5
310
F5F5F5F5F5F5F5F5F5F5F5F5F5F5F5F5F5F5F5F5F5F5F5F5F5F5F5F5F5F5F5F5F5F5F5F5F5F5F5F5F5E2E2E2F5F5F5F5F5F5F5F5F5F5F5F5F5F5F5F5F5F5F5F5F5F5F5F5F5F5F5F5F5F5F5F5F5F5F5F5F5F5F5F5F5F5F5F5F5F5F5F5F5F5F5F5F5F5F5F5F5F5F5F5F5F5F5F5F5F5F5F5F5F5F5F5F5F5F5F5F5F5F5F5F5F5F5
310
F5F5F5F5F5F5F5F5F5F5F5F5F5F5F5F5F5F5F5F5F5F5F5F5F5F5F5F5F5F5F5F5F5F5F5F5F5F5F5F5F5F5F5F5F5F5F5F5F5F5F5F5F5F5F5F5F5F5F5F5F5F5F5F5F5F5F5F5F5F5F5F5F5F5F5F5F5F5F5F5F5F5F5F5F5F5F5F5F5F5F5F5F5F5E2E2E2F5F5F5F5F5F5F5F5F5F5F5E2F5F5F5F5F5F5F5F5F5F5F5F5F5F5F5F5F5F5
310
F5F5F5F5F5F5F5F5F5F5F5F5F5F5F5F5F5F5F5F5F5F5F5F5F5F5F5F5F5F5F5F5F5F5F5F5F5F5F5F5F5F5F5F5F5F5F5F5F5F5F5F5F5F5F5F5F5F5F5F5F5F5F5F5F5F5F5F5F5F5F5F5F5F5F5F5F5F5F5F5F5F5F5F5F5F5F5F5F5F5F5F5F5F5F5F5F5F5F5F5F5F5F5F5F5F5F5F5F5F5F5F5F5F5F5F5F5F5F5F5F5F5F5F5F5F5F5
310
F5F5F5F5F5F5F5F5E2F5F5F5F5F5F5F5F5F5F5F5E2E2E2F5F5F5F5F5F5F5F5F5F5F5E2F5F5F5F5F5F5F5F5F5F5F5F5F5F5F5F5F5F5F5F5F5F5F5F5F5F5F5F5F5F5F5F5F5F5F5F5F5F5F5F5F5F5F5F5F5F5F5F5F5F5F5F5F5F5F5F5F5F5F5F5F5F5F5F5F5F5F5F5F5F5F5F5F5F5F5F5F5F5F5F5F5F5F5F5F5F5F5F5F5F5F5F5
310
F5F5F5F5F5F5F5F5F5F5F5F5F5F5F5F5F5F5F5F5F5F5F5F5F5F5F5F5F5F5F5F5F5F5F5F5F5F5F5F5F5F5F5F5F5F5F5F5F5F5F5F5F5F5F5F5F5F5F5F5F5E2F5F5F5F5F5F5F5F5F5F5F5E2E2E2F5F5F5F5F5F5F5F5F5F5F5E2F5F5F5F5F5F5F5F5F5F5F5F5F5F5F5F5F5F5F5F5F5F5F5F5F5F5F5F5F5F5F5F5F5F5F5F5F5F5F5
310
F5F5F5F5F5F5F5F5F5F5F5F5F5F5F5F5F5F5F5F5F5F5F5F5F5F5F5F5F5F5F5F5F5F5F5F5F5F5F5F5F5F5F5F5F5F5F5F5F5F5F5F5F5F5F5F5F5F5F5F5F5F5F5F5F5F5F5F5F5F5F5F5F5F5F5F5F5F5F5F5F5F5F5F5F5F5F5F5F5F5F5F5F5F5F5F5F5F5F5F5F5F5F5F5F5F5F5F5F5F5F5F5F5F5E2F5F5F5F5F5F5F5F5F5F5F5E2
310
E2E2F5F5F5F5F5F5F5F5F5F5F5E2F5F5F5F5F5F5F5F5F5F5F5F5F5F5F5F5F5F5F5F5F5F5F5F5F5F5F5F5F5F5F5F5F5F5F5F5F5F5F5F5F5F5F5F5F5F5F5F5F5F5F5F5F5F5F5F5F5F5F5F5F5F5F5F5F5F5F5F5F5F5F5F5F5F5F5F5F5F5F5F5F5F5F5F5F5F5F5F5F5F5F5F5F5F5F5F5F5F5F5F5F5F5F5F5F5F5F5F5F5F5F5F5F5
310
F5F5F5F5F5F5F5F5F5F5F5F5F5F5F5F5F5F5F5F5F5F5F5F5F5F5F5F5F5F5F5F5F5F5F5F5F5F5F5F5E2F5F5F5F5F5F5F5F5F5F5F5E2E2E2F5F5F5F5F5F5F5F5F5F5F5E2F5F5F5F5F5F5F5F5F5F5F5F5F5F5F5F5F5F5F5F5F5F5F5F5F5F5F5F5F5F5F5F5F5F5F5F5F5F5F5F5F5F5F5F5F5F5F5F5F5F5F5F5F5F5F5F5F5F5F5F5
310
F5F5F5F5F5F5F5F5F5F5F5F5F5F5F5F5F5F5F5F5F5F5F5F5F5F5F5F5F5F5F5F5F5F5F5F5F5F5F5F5F5F5F5F5F5F5F5F5F5F5F5F5F5F5F5F5F5F5F5F5F5F5F5F5F5F5F5F5F5F5F5F5F5F5F5F5F5F5F5F5F5F5F5F5F5F5F5F5F5F5F5F5F5E2F5F5F5F5F5F5F5F5F5F5F5E2E2E2F5F5F5F5F5F5F5F5F5F5F5E2F5F5F5F5F5F5F5
310
F5F5F5F5F5F5F5F5F5F5F5F5F5F5F5F5F5F5F5F5F5F5F5F5F5F5F5F5F5F5F5F5F5F5F5F5F5F5F5F5F5F5F5F5F5F5F5F5F5F5F5F5F5F5F5F5F5F5F5F5F5F5F5F5F5F5F5F5F5F5F5F5F5F5F5F5F5F5F5F5F5F5F5F5F5F5F5F5F5F5F5F5F5F5F5F5F5F5F5F5F5F5F5F5F5F5F5F5F5F5F5F5F5F5F5F5F5F5F5F5F5F5F5F5F5F5F5
310
F5F5F5F5F5F5F5F5F5F5F5F5F5F5F5F5F5F5F5E2F5F5F5F5F5F5F5F5F5F5F5E2E2E2F5F5F5F5F5F5F5F5F5F5F5E2F5F5F5F5F5F5F5F5F5F5F5F5F5F5F5F5F5F5F5F5F5F5F5F5F5F5F5F5F5F5F5F5F5F5F5F5F5F5F5F5F5F5F5F5F5F5F5F5F5F5F5F5F5F5F5F5F5F5F5F5F5F5F5F5F5F5F5F5F5F5F5F5F5F5F5F5F5F5F5F5F5
310
F5F5F5F5F5F5F5F5F5F5F5F5F5F5F5F5F5F5F5F5F5F5F5F5F5F5F5F5F5F5F5F5F5F5F5F5F5F5F5F5F5F5F5F5F5F5F5F5F5F5F5F5F5F5F5F5F5F5F5F5F5F5F5F5F5F5F5F5F5F5F5F5E2F5F5F5F5F5F5F5F5F5F5F5E2E2E2F5F5F5F5F5F5F5F5F5F5F5E2F5F5F5F5F5F5F5F5F5F5F5F5F5F5F5F5F5F5F5F5F5F5F5F5F5F5F5F5
310
F5F5F5F5F5F5F5F5F5F5F5F5F5F5F5F5F5F5F5F5F5F5F5F5F5F5F5F5F5F5F5F5F5F5F5F5F5F5F5F5F5F5F5F5F5F5F5F5F5F5F5F5F5F5F5F5F5F5F5F5F5F5F5F5F5F5F5F5F5F5F5F5F5F5F5F5F5F5F5F5F5F5F5F5F5F5F5F5F5F5F5F5F5F5F5F5F5F5F5F5F5F5F5F5F5F5F5F5F5F5F5F5F5F5F5F5F5F5F5F5F5F5F5F5F5E2F5
310
F5F5F5F5F5F5F5F5F5F5E2E2E2F5F5F5F5F5F5F5F5F5F5F5E2F5F5F5F5F5F5F5F5F5F5F5F5F5F5F5F5F5F5F5F5F5F5F5F5F5F5F5F5F5F5F5F5F5F5F5F5F5F5F5F5F5F5F5F5F5F5F5F5F5F5F5F5F5F5F5F5F5F5F5F5F5F5F5F5F5F5F5F5F5F5F5F5F5F5F5F5F5F5F5F5F5F5F5F5F5F5F5F5F5F5F5F5F5F5F5F5F5F5F5F5F5F5
310
F5F5F5F5F5F5F5F5F5F5F5F5F5F5F5F5F5F5F5F5F5F5F5F5F5F5F5F5F5F5F5F5F5F5F5F5F5F5F5F5F5F5F5F5F5F5F5F5F5F5F5E2F5F5F5F5F5F5F5F5F5F5F5E2E2E2F5F5F5F5F5F5F5F5F5F5F5E2F5F5F5F5F5F5F5F5F5F5F5F5F5F5F5F5F5F5F5F5F5F5F5F5F5F5F5F5F5F5F5F5F5F5F5F5F5F5F5F5F5F5F5F5F5F5F5F5F5
310
F5F5F5F5F5F5F5F5F5F5F5F5F5F5F5F5F5F5F5F5F5F5F5F5F5F5F5F5F5F5F5F5F5F5F5F5F5F5F5F5F5F5F5F5F5F5F5F5F5F5F5F5F5F5F5F5F5F5F5F5F5F5F5F5F5F5F5F5F5F5F5F5F5F5F5F5F5F5F5F5F5F5F5F5F5F5F5F5F5F5F5F5F5F5F5F5F5F5F5F5F5F5F5F5E2F5F5F5F5F5F5F5F5F5F5F5E2E2E2F5F5F5F5F5F5F5F5
310
F5F5F5E2F5F5F5F5F5F5F5F5F5F5F5F5F5F5F5F5F5F5F5F5F5F5F5F5F5F5F5F5F5F5F5F5F5F5F5F5F5F5F5F5F5F5F5F5F5F5F5F5F5F5F5F5F5F5F5F5F5F5F5F5F5F5F5F5F5F5F5F5F5F5F5F5F5F5F5F5F5F5F5F5F5F5F5F5F5F5F5F5F5F5F5F5F5F5F5F5F5F5F5F5F5F5F5F5F5F5F5F5F5F5F5F5F5F5F5F5F5F5F5F5F5F5F5
310
F5F5F5F5F5F5F5F5F5F5F5F5F5F5F5F5F5F5F5F5F5F5F5F5F5F5F5F5F5F5E2F5F5F5F5F5F5F5F5F5F5F5E2E2E2F5F5F5F5F5F5F5F5F5F5F5E2F5F5F5F5F5F5F5F5F5F5F5F5F5F5F5F5F5F5F5F5F5F5F5F5F5F5F5F5F5F5F5F5F5F5F5F5F5F5F5F5F5F5F5F5F5F5F5F5F5F5F5F5F5F5F5F5F5F5F5F5F5F5F5F5F5F5F5F5F5F5
310
F5F5F5F5F5F5F5F5F5F5F5F5F5F5F5F5F5F5F5F5F5F5F5F5F5F5F5F5F5F5F5F5F5F5F5F5F5F5F5F5F5F5F5F5F5F5F5F5F5F5F5F5F5F5F5F5F5F5F5F5F5F5F5F5F5F5F5F5F5F5F5F5F5F5F5F5F5F5F5F5F5F5F5E2F5F5F5F5F5F5F5F5F5F5F5E2E2E2F5F5F5F5F5F5F5F5F5F5F5E2F5F5F5F5F5F5F5F5F5F5F5F5F5F5F5F5F5
310
F5F5F5F5F5F5F5F5F5F5F5F5F5F5F5F5F5F5F5F5F5F5F5F5F5F5F5F5F5F5F5F5F5F5F5F5F5F5F5F5F5F5F5F5F5F5F5F5F5F5F5F5F5F5F5F5F5F5F5F5F5F5F5F5F5F5F5F5F5F5F5F5F5F5F5F5F5F5F5F5F5F5F5F5F5F5F5F5F5F5F5F5F5F5F5F5F5F5F5F5F5F5F5F5F5F5F5F5F5F5F5F5F5F5F5F5F5F5F5F5F5F5F5F5F5F5F5
310
F5F5F5F5F5F5F5F5F5E2F5F5F5F5F5F5F5F5F5F5F5E2E2E2F5F5F5F5F5F5F5F5F5F5F5E2F5F5F5F5F5F5F5F5F5F5F5F5F5F5F5F5F5F5F5F5F5F5F5F5F5F5F5F5F5F5F5F5F5F5F5F5F5F5F5F5F5F5F5F5F5F5F5F5F5F5F5F5F5F5F5F5F5F5F5F5F5F5F5F5F5F5F5F5F5F5F5F5F5F5F5F5F5F5F5F5F5F5F5F5F5F5F5F5F5F5F5
310
F5F5F5F5F5F5F5F5F5F5F5F5F5F5F5F5F5F5F5F5F5F5F5F5F5F5F5F5F5F5F5F5F5F5F5F5F5F5F5F5F5F5F5F5F5F5F5F5F5F5F5F5F5F5F5F5F5F5F5F5F5F5E2F5F5F5F5F5F5F5F5F5F5F5E2E2E2F5F5F5F5F5F5F5F5F5F5F5E2F5F5F5F5F5F5F5F5F5F5F5F5F5F5F5F5F5F5F5F5F5F5F5F5F5F5F5F5F5F5F5F5F5F5F5F5F5F5
310
F5F5F5F5F5F5F5F5F5F5F5F5F5F5F5F5F5F5F5F5F5F5F5F5F5F5F5F5F5F5F5F5F5F5F5F5F5F5F5F5F5F5F5F5F5F5F5F5F5F5F5F5F5F5F5F5F5F5F5F5F5F5F5F5F5F5F5F5F5F5F5F5F5F5F5F5F5F5F5F5F5F5F5F5F5F5F5F5F5F5F5F5F5F5F5F5F5F5F5F5F5F5F5F5F5F5F5F5F5F5F5F5F5F5F5E2F5F5F5F5F5F5F5F5F5F5F5
310
E2E2E2F5F5F5F5F5F5F5F5F5F5F5F5F5F5F5F5F5F5F5F5F5F5F5F5F5F5F5F5F5F5F5F5F5F5F5F5F5F5F5F5F5F5F5F5F5F5F5F5F5F5F5F5F5F5F5F5F5F5F5F5F5F5F5F5F5F5F5F5F5F5F5F5F5F5F5F5F5F5F5F5F5F5F5F5F5F5F5F5F5F5F5F5F5F5F5F5F5F5F5F5F5F5F5F5F5F5F5F5F5F5F5F5F5F5F5F5F5F5F5F5F5F5F5F5
310
F5F5F5F5F5F5F5F5F5F5F5F5F5F5F5F5F5F5F5F5F5F5F5F5F5F5F5F5F5F5F5F5F5F5F5F5F5F5F5F5F5F5F5F5F5F5F5F5F5F5F5F5F5E2E2E2F5F5F5F5F5F5F5F5F5F5F5F5F5F5F5F5F5F5F5F5F5F5F5F5F5F5F5F5F5F5F5F5F5F5F5F5F5F5F5F5F5F5F5F5F5F5F5F5F5F5F5F5F5F5F5F5F5F5F5F5F5F5F5F5F5F5F5F5F5F5F5
310
F5F5F5F5F5F5F5F5F5F5F5F5F5F5F5F5F5F5F5F5F5F5F5F5F5F5F5F5F5F5F5F5F5F5F5F5F5F5F5F5F5F5F5F5F5F5F5F5F5F5F5F5F5F5F5F5F5F5F5F5F5F5F5F5F5F5F5F5F5F5F5F5F5F5F5F5F5F5F5F5F5F5F5F5F5F5F5F5F5F5F5F5F5F5F5F5F5F5F5F5F5F5F5F5F5F5E2E2E2F5F5F5F5F5F5F5F5F5F5F5F5F5F5F5F5F5F5
310
F5F5F5F5F5F5F5F5F5F5F5F5F5F5F5F5F5F5F5F5F5F5F5F5F5F5F5F5F5F5F5F5F5F5F5F5F5F5F5F5F5F5F5F5F5F5F5F5F5F5F5F5F5F5F5F5F5F5F5F5F5F5F5F5F5F5F5F5F5F5F5F5F5F5F5F5F5F5F5F5F5F5F5F5F5F5F5F5F5F5F5F5F5F5F5F5F5F5F5F5F5F5F5F5F5F5F5F5F5F5F5F5F5F5F5F5F5F5F5F5F5F5F5F5F5F5F5
310
F5F5F5F5F5F5F5F5F5F5F5F5F5F5F5F5F5F5F5F5F5F5F5F5F5F5F5F5F5F5F5F5E2E2E2F5F5F5F5F5F5F5F5F5F5F5F5F5F5F5F5F5F5F5F5F5F5F5F5F5F5F5F5F5F5F5F5F5F5F5F5F5F5F5F5F5F5F5F5F5F5F5F5F5F5F5F5F5F5F5F5F5F5F5F5F5F5F5F5F5F5F5F5F5F5F5F5F5F5F5F5F5F5F5F5F5F5F5F5F5F5F5F5F5F5F5F5
310
F5F5F5F5F5F5F5F5F5F5F5F5F5F5F5F5F5F5F5F5F5F5F5F5F5F5F5F5F5F5F5F5F5F5F5F5F5F5F5F5F5F5F5F5F5F5F5F5F5F5F5F5F5F5F5F5F5F5F5F5F5F5F5F5F5F5F5F5F5F5F5F5F5F5F5F5F5F5F5F5F5F5F5F5F5E2E2E2F5F5F5F5F5F5F5F5F5F5F5F5F5F5F5F5F5F5F5F5F5F5F5F5F5F5F5F5F5F5F5F5F5F5F5F5F5F5F5
310
F5F5F5F5F5F5F5F5F5F5F5F5F5F5F5F5F5F5F5F5F5F5F5F5F5F5F5F5F5F5F5F5F5F5F5F5F5F5F5F5F5F5F5F5F5F5F5F5F5F5F5F5F5F5F5F5F5F5F5F5F5F5F5F5F5F5F5F5F5F5F5F5F5F5F5F5F5F5F5F5F5F5F5F5F5F5F5F5F5F5F5F5F5F5F5F5F5F5F5F5F5F5F5F5F5F5F5F5F5F5F5F5F5F5F5F5F5F5F5F5F5F5F5F5F5F5F5
310
F5F5F5F5F5F5F5F5F5F5F5E2E2E2F5F5F5F5F5F5F5F5F5F5F5F5F5F5F5F5F5F5F5F5F5F5F5F5F5F5F5F5F5F5F5F5F5F5F5F5F5F5F5F5F5F5F5F5F5F5F5F5F5F5F5F5F5F5F5F5F5F5F5F5F5F5F5F5F5F5F5F5F5F5F5F5F5F5F5F5F5F5F5F5F5F5F5F5F5F5F5F5F5F5F5F5F5F5F5F5F5F5F5F5F5F5F5F5F5F5F5F5F5F5F5F5F5
310
F5F5F5F5F5F5F5F5F5F5F5F5F5F5F5F5F5F5F5F5F5F5F5F5F5F5F5F5F5F5F5F5F5F5F5F5F5F5F5F5F5F5F5F5F5F5F5F5F5F5F5F5F5F5F5F5F5F5F5F5F5F5F5F5E2E2E2F5F5F5F5F5F5F5F5F5F5F5F5F5F5F5F5F5F5F5F5F5F5F5F5F5F5F5F5F5F5F5F5F5F5F5F5F5F5F5F5F5F5F5F5F5F5F5F5F5F5F5F5F5F5F5F5F5F5F5F5
310
F5F5F5F5F5F5F5F5F5F5F5F5F5F5F5F5F5F5F5F5F5F5F5F5F5F5F5F5F5F5F5F5F5F5F5F5F5F5F5F5F5F5F5F5F5F5F5F5F5F5F5F5F5F5F5F5F5F5F5F5F5F5F5F5F5F5F5F5F5F5F5F5F5F5F5F5F5F5F5F5F5F5F5F5F5F5F5F5F5F5F5F5F5F5F5F5F5F5F5F5F5F5F5F5F5F5F5F5F5F5F5F5F5F5F5F5F5E2E2E2F5F5F5F5F5F5F5
310
F5F5F5F5F5F5F5F5F5F5F5F5F5F5F5F5F5F5F5F5F5F5F5F5F5F5F5F5F5F5F5F5F5F5F5F5F5F5F5F5F5F5F5F5F5F5F5F5F5F5F5F5F5F5F5F5F5F5F5F5F5F5F5F5F5F5F5F5F5F5F5F5F5F5F5F5F5F5F5F5F5F5F5F5F5F5F5F5F5F5F5F5F5F5F5F5F5F5F5F5F5F5F5F5F5F5F5F5F5F5F5F5F5F5F5F5F5F5F5F5F5F5F5F5F5F5F5
310
F5F5F5F5F5F5F5F5F5F5F5F5F5F5F5F5F5F5F5F5F5F5F5F5F5F5F5F5F5F5F5F5F5F5F5F5F5F5F5F5F5F5F5E2E2E2F5F5F5F5F5F5F5F5F5F5F5E2F5F5F5F5F5F5F5F5F5F5F5F5F5F5F5F5F5F5F5F5F5F5F5F5F5F5F5F5F5F5F5F5F5F5F5F5F5F5F5F5F5F5F5F5F5F5F5F5F5F5F5F5F5F5F5F5F5F5F5F5F5F5F5F5F5F5F5F5F5
310
F5F5F5F5F5F5F5F5F5F5F5F5F5F5F5F5F5F5F5F5F5F5F5F5F5F5F5F5F5F5F5F5F5F5F5F5F5F5F5F5F5F5F5F5F5F5F5F5F5F5F5F5F5F5F5F5F5F5F5F5F5F5F5F5F5F5F5F5F5F5F5F5F5F5F5F5F5F5F5F5F5F5F5F5E2F5F5F5F5F5F5F5F5F5F5F5E2E2E2F5F5F5F5F5F5F5F5F5F5F5E2F5F5F5F5F5F5F5F5F5F5F5F5F5F5F5F5
310
F5F5F5F5F5F5F5F5F5F5F5F5F5F5F5F5F5F5F5F5F5F5F5F5F5F5F5F5F5F5F5F5F5F5F5F5F5F5F5F5F5F5F5F5F5F5F5F5F5F5F5F5F5F5F5F5F5F5F5F5F5F5F5F5F5F5F5F5F5F5F5F5F5F5F5F5F5F5F5F5F5F5F5F5F5F5F5F5F5F5F5F5F5F5F5F5F5F5F5F5F5F5F5F5F5F5F5F5F5F5F5F5F5F5F5F5F5F5F5F5F5F5F5F5F5F5F5
310
F5F5F5F5F5F5F5F5F5F5E2F5F5F5F5F5F5F5F5F5F5F5E2E2E2F5F5F5F5F5F5F5F5F5F5F5E2F5F5F5F5F5F5F5F5F5F5F5F5F5F5F5F5F5F5F5F5F5F5F5F5F5F5F5F5F5F5F5F5F5F5F5F5F5F5F5F5F5F5F5F5F5F5F5F5F5F5F5F5F5F5F5F5F5F5F5F5F5F5F5F5F5F5F5F5F5F5F5F5F5F5F5F5F5F5F5F5F5F5F5F5F5F5F5F5F5F5
310
F5F5F5F5F5F5F5F5F5F5F5F5F5F5F5F5F5F5F5F5F5F5F5F5F5F5F5F5F5F5F5F5F5F5F5F5F5F5F5F5F5F5F5F5F5F5F5F5F5F5F5F5F5F5F5F5F5F5F5F5F5F5F5E2F5F5F5F5F5F5F5F5F5F5F5E2E2E2F5F5F5F5F5F5F5F5F5F5F5E2F5F5F5F5F5F5F5F5F5F5F5F5F5F5F5F5F5F5F5F5F5F5F5F5F5F5F5F5F5F5F5F5F5F5F5F5F5
310
F5F5F5F5F5F5F5F5F5F5F5F5F5F5F5F5F5F5F5F5F5F5F5F5F5F5F5F5F5F5F5F5F5F5F5F5F5F5F5F5F5F5F5F5F5F5F5F5F5F5F5F5F5F5F5F5F5F5F5F5F5F5F5F5F5F5F5F5F5F5F5F5F5F5F5F5F5F5F5F5F5F5F5F5F5F5F5F5F5F5F5F5F5F5F5F5F5F5F5F5F5F5F5F5F5F5F5F5F5F5F5F5F5F5F5F5E2F5F5F5F5F5F5F5F5F5F5
310
F5E2E2E2F5F5F5F5F5F5F5F5F5F5F5E2F5F5F5F5F5F5F5F5F5F5F5F5F5F5F5F5F5F5F5F5F5F5F5F5F5F5F5F5F5F5F5F5F5F5F5F5F5F5F5F5F5F5F5F5F5F5F5F5F5F5F5F5F5F5F5F5F5F5F5F5F5F5F5F5F5F5F5F5F5F5F5F5F5F5F5F5F5F5F5F5F5F5F5F5F5F5F5F5F5F5F5F5F5F5F5F5F5F5F5F5F5F5F5F5F5F5F5F5F5F5F5
310
F5F5F5F5F5F5F5F5F5F5F5F5F5F5F5F5F5F5F5F5F5F5F5F5F5F5F5F5F5F5F5F5F5F5F5F5F5F5F5F5F5F5E2F5F5F5F5F5F5F5F5F5F5F5E2E2E2F5F5F5F5F5F5F5F5F5F5F5E2F5F5F5F5F5F5F5F5F5F5F5F5F5F5F5F5F5F5F5F5F5F5F5F5F5F5F5F5F5F5F5F5F5F5F5F5F5F5F5F5F5F5F5F5F5F5F5F5F5F5F5F5F5F5F5F5F5F5
310
F5F5F5F5F5F5F5F5F5F5F5F5F5F5F5F5F5F5F5F5F5F5F5F5F5F5F5F5F5F5F5F5F5F5F5F5F5F5F5F5F5F5F5F5F5F5F5F5F5F5F5F5F5F5F5F5F5F5F5F5F5F5F5F5F5F5F5F5F5F5F5F5F5F5F5F5F5F5F5F5F5F5F5F5F5F5F5F5F5F5F5F5F5F5F5E2F5F5F5F5F5F5F5F5F5F5F5E2E2E2F5F5F5F5F5F5F5F5F5F5F5E2F5F5F5F5F5
310
F5F5F5F5F5F5F5F5F5F5F5F5F5F5F5F5F5F5F5F5F5F5F5F5F5F5F5F5F5F5F5F5F5F5F5F5F5F5F5F5F5F5F5F5F5F5F5F5F5F5F5F5F5F5F5F5F5F5F5F5F5F5F5F5F5F5F5F5F5F5F5F5F5F5F5F5F5F5F5F5F5F5F5F5F5F5F5F5F5F5F5F5F5F5F5F5F5F5F5F5F5F5F5F5F5F5F5F5F5F5F5F5F5F5F5F5F5F5F5F5F5F5F5F5F5F5F5
310
F5F5F5F5F5F5F5F5F5F5F5F5F5F5F5F5F5F5F5F5F5E2F5F5F5F5F5F5F5F5F5F5F5E2E2E2F5F5F5F5F5F5F5F5F5F5F5E2F5F5F5F5F5F5F5F5F5F5F5F5F5F5F5F5F5F5F5F5F5F5F5F5F5F5F5F5F5F5F5F5F5F5F5F5F5F5F5F5F5F5F5F5F5F5F5F5F5F5F5F5F5F5F5F5F5F5F5F5F5F5F5F5F5F5F5F5F5F5F5F5F5F5F5F5F5F5F5
310
F5F5F5F5F5F5F5F5F5F5F5F5F5F5F5F5F5F5F5F5F5F5F5F5F5F5F5F5F5F5F5F5F5F5F5F5F5F5F5F5F5F5F5F5F5F5F5F5F5F5F5F5F5F5F5F5F5F5F5F5F5F5F5F5F5F5F5F5F5F5F5F5F5F5E2F5F5F5F5F5F5F5F5F5F5F5E2E2E2F5F5F5F5F5F5F5F5F5F5F5E2F5F5F5F5F5F5F5F5F5F5F5F5F5F5F5F5F5F5F5F5F5F5F5F5F5F5
310
F5F5F5F5F5F5F5F5F5F5F5F5F5F5F5F5F5F5F5F5F5F5F5F5F5F5F5F5F5F5F5F5F5F5F5F5F5F5F5F5F5F5F5F5F5F5F5F5F5F5F5F5F5F5F5F5F5F5F5F5F5F5F5F5F5F5F5F5F5F5F5F5F5F5F5F5F5F5F5F5F5F5F5F5F5F5F5F5F5F5F5F5F5F5F5F5F5F5F5F5F5F5F5F5F5F5F5F5F5F5F5F5F5F5F5F5F5F5F5F5F5F5F5F5F5F5F5
310
E2F5F5F5F5F5F5F5F5F5F5F5E2E2E2F5F5F5F5F5F5F5F5F5F5F5E2F5F5F5F5F5F5F5F5F5F5F5F5F5F5F5F5F5F5F5F5F5F5F5F5F5F5F5F5F5F5F5F5F5F5F5F5F5F5F5F5F5F5F5F5F5F5F5F5F5F5F5F5F5F5F5F5F5F5F5F5F5F5F5F5F5F5F5F5F5F5F5F5F5F5F5F5F5F5F5F5F5F5F5F5F5F5F5F5F5F5F5F5F5F5F5F5F5F5F5F5
310
F5F5F5F5F5F5F5F5F5F5F5F5F5F5F5F5F5F5F5F5F5F5F5F5F5F5F5F5F5F5F5F5F5F5F5F5F5F5F5F5F5F5F5F5F5F5F5F5F5F5F5F5F5E2F5F5F5F5F5F5F5F5F5F5F5E2E2E2F5F5F5F5F5F5F5F5F5F5F5E2F5F5F5F5F5F5F5F5F5F5F5F5F5F5F5F5F5F5F5F5F5F5F5F5F5F5F5F5F5F5F5F5F5F5F5F5F5F5F5F5F5F5F5F5F5F5F5
310
F5F5F5F5F5F5F5F5F5F5F5F5F5F5F5F5F5F5F5F5F5F5F5F5F5F5F5F5F5F5F5F5F5F5F5F5F5F5F5F5F5F5F5F5F5F5F5F5F5F5F5F5F5F5F5F5F5F5F5F5F5F5F5F5F5F5F5F5F5F5F5F5F5F5F5F5F5F5F5F5F5F5F5F5F5F5F5F5F5F5F5F5F5F5F5F5F5F5F5F5F5F5F5F5F5F5E2F5F5F5F5F5F5F5F5F5F5F5E2E2E2F5F5F5F5F5F5
310
F5F5F5F5F5E2F5F5F5F5F5F5F5F5F5F5F5F5F5F5F5F5F5F5F5F5F5F5F5F5F5F5F5F5F5F5F5F5F5F5F5F5F5F5F5F5F5F5F5F5F5F5F5F5F5F5F5F5F5F5F5F5F5F5F5F5F5F5F5F5F5F5F5F5F5F5F5F5F5F5F5F5F5F5F5F5F5F5F5F5F5F5F5F5F5F5F5F5F5F5F5F5F5F5F5F5F5F5F5F5F5F5F5F5F5F5F5F5F5F5F5F5F5F5F5F5F5
310
F5F5F5F5F5F5F5F5F5F5F5F5F5F5F5F5F5F5F5F5F5F5F5F5F5F5F5F5F5F5F5F5E2F5F5F5F5F5F5F5F5F5F5F5E2E2E2F5F5F5F5F5F5F5F5F5F5F5E2F5F5F5F5F5F5F5F5F5F5F5F5F5F5F5F5F5F5F5F5F5F5F5F5F5F5F5F5F5F5F5F5F5F5F5F5F5F5F5F5F5F5F5F5F5F5F5F5F5F5F5F5F5F5F5F5F5F5F5F5F5F5F5F5F5F5F5F5
310
F5F5F5F5F5F5F5F5F5F5F5F5F5F5F5F5F5F5F5F5F5F5F5F5F5F5F5F5F5F5F5F5F5F5F5F5F5F5F5F5F5F5F5F5F5F5F5F5F5F5F5F5F5F5F5F5F5F5F5F5F5F5F5F5F5F5F5F5F5F5F5F5F5F5F5F5F5F5F5F5F5F5F5F5F5E2F5F5F5F5F5F5F5F5F5F5F5E2E2E2F5F5F5F5F5F5F5F5F5F5F5E2F5F5F5F5F5F5F5F5F5F5F5F5F5F5F5
310
F5F5F5F5F5F5F5F5F5F5F5F5F5F5F5F5F5F5F5F5F5F5F5F5F5F5F5F5F5F5F5F5F5F5F5F5F5F5F5F5F5F5F5F5F5F5F5F5F5F5F5F5F5F5F5F5F5F5F5F5F5F5F5F5F5F5F5F5F5F5F5F5F5F5F5F5F5F5F5F5F5F5F5F5F5F5F5F5F5F5F5F5F5F5F5F5F5F5F5F5F5F5F5F5F5F5F5F5F5F5F5F5F5F5F5F5F5F5F5F5F5F5F5F5F5F5F5
310
F5F5F5F5F5F5F5F5F5F5F5E2F5F5F5F5F5F5F5F5F5F5F5E2E2E2F5F5F5F5F5F5F5F5F5F5F5E2F5F5F5F5F5F5F5F5F5F5F5F5F5F5F5F5F5F5F5F5F5F5F5F5F5F5F5F5F5F5F5F5F5F5F5F5F5F5F5F5F5F5F5F5F5F5F5F5F5F5F5F5F5F5F5F5F5F5F5F5F5F5F5F5F5F5F5F5F5F5F5F5F5F5F5F5F5F5F5F5F5F5F5F5F5F5F5F5F5
310
F5F5F5F5F5F5F5F5F5F5F5F5F5F5F5F5F5F5F5F5F5F5F5F5F5F5F5F5F5F5F5F5F5F5F5F5F5F5F5F5F5F5F5F5F5F5F5F5F5F5F5F5F5F5F5F5F5F5F5F5F5F5F5F5E2F5F5F5F5F5F5F5F5F5F5F5E2E2E2F5F5F5F5F5F5F5F5F5F5F5F5F5F5F5F5F5F5F5F5F5F5F5F5F5F5F5F5F5F5F5F5F5F5F5F5F5F5F5F5F5F5F5F5F5F5F5F5
310
F5F5F5F5F5F5F5F5F5F5F5F5F5F5F5F5F5F5F5F5F5F5F5F5F5F5F5F5F5F5F5F5F5F5F5F5F5F5F5F5F5F5F5F5F5F5F5F5F5F5F5F5F5F5F5F5F5F5F5F5F5F5F5F5F5F5F5F5F5F5F5F5F5F5F5F5F5F5F5F5F5F5F5F5F5F5F5F5F5F5F5F5F5F5F5F5F5F5F5F5F5F5F5F5F5F5F5F5F5F5F5F5F5F5F5F5F5F5F5F5F5F5F5F5F5F5F5
310
F5F5E2E2E2F5F5F5F5F5F5F5F5F5F5F5F5F5F5F5F5F5F5F5F5F5F5F5F5F5F5F5F5F5F5F5F5F5F5F5F5F5F5F5F5F5F5F5F5F5F5F5F5F5F5F5F5F5F5F5F5F5F5F5F5F5F5F5F5F5F5F5F5F5F5F5F5F5F5F5F5F5F5F5F5F5F5F5F5F5F5F5F5F5F5F5F5F5F5F5F5F5F5F5F5F5F5F5F5F5F5F5F5F5F5F5F5F5F5F5F5F5F5F5F5F5F5
310
F5F5F5F5F5F5F5F5F5F5F5F5F5F5F5F5F5F5F5F5F5F5F5F5F5F5F5F5F5F5F5F5F5F5F5F5F5F5F5F5F5F5F5F5F5F5F5F5F5F5F5F5F5F5F5E2E2E2F5F5F5F5F5F5F5F5F5F5F5F5F5F5F5F5F5F5F5F5F5F5F5F5F5F5F5F5F5F5F5F5F5F5F5F5F5F5F5F5F5F5F5F5F5F5F5F5F5F5F5F5F5F5F5F5F5F5F5F5F5F5F5F5F5F5F5F5F5
310
F5F5F5F5F5F5F5F5F5F5F5F5F5F5F5F5F5F5F5F5F5F5F5F5F5F5F5F5F5F5F5F5F5F5F5F5F5F5F5F5F5F5F5F5F5F5F5F5F5F5F5F5F5F5F5F5F5F5F5F5F5F5F5F5F5F5F5F5F5F5F5F5F5F5F5F5F5F5F5F5F5F5F5F5F5F5F5F5F5F5F5F5F5F5F5F5F5F5F5F5F5F5F5F5F5F5F5F5E2E2E2F5F5F5F5F5F5F5F5F5F5F5F5F5F5F5F5
310
F5F5F5F5F5F5F5F5F5F5F5F5F5F5F5F5F5F5F5F5F5F5F5F5F5F5F5F5F5F5F5F5F5F5F5F5F5F5F5F5F5F5F5F5F5F5F5F5F5F5F5F5F5F5F5F5F5F5F5F5F5F5F5F5F5F5F5F5F5F5F5F5F5F5F5F5F5F5F5F5F5F5F5F5F5F5F5F5F5F5F5F5F5F5F5F5F5F5F5F5F5F5F5F5F5F5F5F5F5F5F5F5F5F5F5F5F5F5F5F5F5F5F5F5F5F5F5
310
F5F5F5F5F5F5F5F5F5F5F5F5F5F5F5F5F5F5F5F5F5F5F5F5F5F5F5F5F5F5F5F5F5F5E2E2E2F5F5F5F5F5F5F5F5F5F5F5F5F5F5F5F5F5F5F5F5F5F5F5F5F5F5F5F5F5F5F5F5F5F5F5F5F5F5F5F5F5F5F5F5F5F5F5F5F5F5F5F5F5F5F5F5F5F5F5F5F5F5F5F5F5F5F5F5F5F5F5F5F5F5F5F5F5F5F5F5F5F5F5F5F5F5F5F5F5F5
310
F5F5F5F5F5F5F5F5F5F5F5F5F5F5F5F5F5F5F5F5F5F5F5F5F5F5F5F5F5F5F5F5F5F5F5F5F5F5F5F5F5F5F5F5F5F5F5F5F5F5F5F5F5F5F5F5F5F5F5F5F5F5F5F5F5F5F5F5F5F5F5F5F5F5F5F5F5F5F5F5F5F5F5F5F5F5F5E2E2E2F5F5F5F5F5F5F5F5F5F5F5F5F5F5F5F5F5F5F5F5F5F5F5F5F5F5F5F5F5F5F5F5F5F5F5F5F5
310
F5F5F5F5F5F5F5F5F5F5F5F5F5F5F5F5F5F5F5F5F5F5F5F5F5F5F5F5F5F5F5F5F5F5F5F5F5F5F5F5F5F5F5F5F5F5F5F5F5F5F5F5F5F5F5F5F5F5F5F5F5F5F5F5F5F5F5F5F5F5F5F5F5F5F5F5F5F5F5F5F5F5F5F5F5F5F5F5F5F5F5F5F5F5F5F5F5F5F5F5F5F5F5F5F5F5F5F5F5F5F5F5F5F5F5F5F5F5F5F5F5F5F5F5F5F5F5
310
F5F5F5F5F5F5F5F5F5F5F5F5F5E2E2E2F5F5F5F5F5F5F5F5F5F5F5F5F5F5F5F5F5F5F5F5F5F5F5F5F5F5F5F5F5F5F5F5F5F5F5F5F5F5F5F5F5F5F5F5F5F5F5F5F5F5F5F5F5F5F5F5F5F5F5F5F5F5F5F5F5F5F5F5F5F5F5F5F5F5F5F5F5F5F5F5F5F5F5F5F5F5F5F5F5F5F5F5F5F5F5F5F5F5F5F5F5F5F5F5F5F5F5F5F5F5F5
310
F5F5F5F5F5F5F5F5F5F5F5F5F5F5F5F5F5F5F5F5F5F5F5F5F5F5F5F5F5F5F5F5F5F5F5F5F5F5F5F5F5F5F5F5F5F5F5F5F5F5F5F5F5F5F5F5F5F5F5F5F5F5F5F5F5F5E2E2E2F5F5F5F5F5F5F5F5F5F5F5F5F5F5F5F5F5F5F5F5F5F5F5F5F5F5F5F5F5F5F5F5F5F5F5F5F5F5F5F5F5F5F5F5F5F5F5F5F5F5F5F5F5F5F5F5F5F5
310
F5F5F5F5F5F5F5F5F5F5F5F5F5F5F5F5F5F5F5F5F5F5F5F5F5F5F5F5F5F5F5F5F5F5F5F5F5F5F5F5F5F5F5F5F5F5F5F5F5F5F5F5F5F5F5F5F5F5F5F5F5F5F5F5F5F5F5F5F5F5F5F5F5F5F5F5F5F5F5F5F5F5F5F5F5F5F5F5F5F5F5F5F5F5F5F5F5F5F5F5F5F5F5F5F5F5F5F5F5F5F5F5F5F5F5F5F5F5F5E2E2E2F5F5F5F5F5
310
F5F5F5F5F5F5E2F5F5F5F5F5F5F5F5F5F5F5F5F5F5F5F5F5F5F5F5F5F5F5F5F5F5F5F5F5F5F5F5F5F5F5F5F5F5F5F5F5F5F5F5F5F5F5F5F5F5F5F5F5F5F5F5F5F5F5F5F5F5F5F5F5F5F5F5F5F5F5F5F5F5F5F5F5F5F5F5F5F5F5F5F5F5F5F5F5F5F5F5F5F5F5F5F5F5F5F5F5F5F5F5F5F5F5F5F5F5F5F5F5F5F5F5F5F5F5F5
310
F5F5F5F5F5F5F5F5F5F5F5F5F5F5F5F5F5F5F5F5F5F5F5F5F5F5F5F5F5F5F5F5F5E2F5F5F5F5F5F5F5F5F5F5F5E2E2E2F5F5F5F5F5F5F5F5F5F5F5E2F5F5F5F5F5F5F5F5F5F5F5F5F5F5F5F5F5F5F5F5F5F5F5F5F5F5F5F5F5F5F5F5F5F5F5F5F5F5F5F5F5F5F5F5F5F5F5F5F5F5F5F5F5F5F5F5F5F5F5F5F5F5F5F5F5F5F5
310
F5F5F5F5F5F5F5F5F5F5F5F5F5F5F5F5F5F5F5F5F5F5F5F5F5F5F5F5F5F5F5F5F5F5F5F5F5F5F5F5F5F5F5F5F5F5F5F5F5F5F5F5F5F5F5F5F5F5F5F5F5F5F5F5F5F5F5F5F5F5F5F5F5F5F5F5F5F5F5F5F5F5F5F5F5F5E2F5F5F5F5F5F5F5F5F5F5F5E2E2E2F5F5F5F5F5F5F5F5F5F5F5E2F5F5F5F5F5F5F5F5F5F5F5F5F5F5
310
F5F5F5F5F5F5F5F5F5F5F5F5F5F5F5F5F5F5F5F5F5F5F5F5F5F5F5F5F5F5F5F5F5F5F5F5F5F5F5F5F5F5F5F5F5F5F5F5F5F5F5F5F5F5F5F5F5F5F5F5F5F5F5F5F5F5F5F5F5F5F5F5F5F5F5F5F5F5F5F5F5F5F5F5F5F5F5F5F5F5F5F5F5F5F5F5F5F5F5F5F5F5F5F5F5F5F5F5F5F5F5F5F5F5F5F5F5F5F5F5F5F5F5F5F5F5F5
310
F5F5F5F5F5F5F5F5F5F5F5F5E2F5F5F5F5F5F5F5F5F5F5F5E2E2E2F5F5F5F5F5F5F5F5F5F5F5E2F5F5F5F5F5F5F5F5F5F5F5F5F5F5F5F5F5F5F5F5F5F5F5F5F5F5F5F5F5F5F5F5F5F5F5F5F5F5F5F5F5F5F5F5F5F5F5F5F5F5F5F5F5F5F5F5F5F5F5F5F5F5F5F5F5F5F5F5F5F5F5F5F5F5F5F5F5F5F5F5F5F5F5F5F5F5F5F5
310
F5F5F5F5F5F5F5F5F5F5F5F5F5F5F5F5F5F5F5F5F5F5F5F5F5F5F5F5F5F5F5F5F5F5F5F5F5F5F5F5F5F5F5F5F5F5F5F5F5F5F5F5F5F5F5F5F5F5F5F5F5F5F5F5F5E2F5F5F5F5F5F5F5F5F5F5F5E2E2E2F5F5F5F5F5F5F5F5F5F5F5E2F5F5F5F5F5F5F5F5F5F5F5F5F5F5F5F5F5F5F5F5F5F5F5F5F5F5F5F5F5F5F5F5F5F5F5
310
F5F5F5F5F5F5F5F5F5F5F5F5F5F5F5F5F5F5F5F5F5F5F5F5F5F5F5F5F5F5F5F5F5F5F5F5F5F5F5F5F5F5F5F5F5F5F5F5F5F5F5F5F5F5F5F5F5F5F5F5F5F5F5F5F5F5F5F5F5F5F5F5F5F5F5F5F5F5F5F5F5F5F5F5F5F5F5F5F5F5F5F5F5F5F5F5F5F5F5F5F5F5F5F5F5F5F5F5F5F5F5F5F5F5F5F5F5F5E2F5F5F5F5F5F5F5F5
310
F5F5F5E2E2E2F5F5F5F5F5F5F5F5F5F5F5E2F5F5F5F5F5F5F5F5F5F5F5F5F5F5F5F5F5F5F5F5F5F5F5F5F5F5F5F5F5F5F5F5F5F5F5F5F5F5F5F5F5F5F5F5F5F5F5F5F5F5F5F5F5F5F5F5F5F5F5F5F5F5F5F5F5F5F5F5F5F5F5F5F5F5F5F5F5F5F5F5F5F5F5F5F5F5F5F5F5F5F5F5F5F5F5F5F5F5F5F5F5F5F5F5F5F5F5F5F5
310
F5F5F5F5F5F5F5F5F5F5F5F5F5F5F5F5F5F5F5F5F5F5F5F5F5F5F5F5F5F5F5F5F5F5F5F5F5F5F5F5F5F5F5F5E2F5F5F5F5F5F5F5F5F5F5F5E2E2E2F5F5F5F5F5F5F5F5F5F5F5E2F5F5F5F5F5F5F5F5F5F5F5F5F5F5F5F5F5F5F5F5F5F5F5F5F5F5F5F5F5F5F5F5F5F5F5F5F5F5F5F5F5F5F5F5F5F5F5F5F5F5F5F5F5F5F5F5
310
F5F5F5F5F5F5F5F5F5F5F5F5F5F5F5F5F5F5F5F5F5F5F5F5F5F5F5F5F5F5F5F5F5F5F5F5F5F5F5F5F5F5F5F5F5F5F5F5F5F5F5F5F5F5F5F5F5F5F5F5F5F5F5F5F5F5F5F5F5F5F5F5F5F5F5F5F5F5F5F5F5F5F5F5F5F5F5F5F5F5F5F5F5F5F5F5F5E2F5F5F5F5F5F5F5F5F5F5F5E2E2E2F5F5F5F5F5F5F5F5F5F5F5E2E2E2E2
310
E2E2E2E2E2F5F5F5F5F5F5F5F5F5E2E2E2E2E2E2E2E2E2E2E2E2E2E2E2E2F5F5F5F5F5F5F5F5F5F5E2E2E2E2E2E2E2E2E2E2E2E2E2E2E2E2F5F5F5F5F5F5F5F5F5E2E2E2E2E2E2E2E2E2E2E2E2E2E2E2E2E2F5F5F5F5F5F5F5F5F5E2E2E2E2E2E2E2E2E2E2E2E2E2E2E2E2F5F5F5F5F5F5F5F5F5F5E2E2E2E2E2E2E2E2E2E2
310
E2E2E2E2E2E2F5F5F5F5F5F5F5F5F5E2E2E2E2E2E2E2E2E2F5F5F5F5F5F5F5F5F5F5F5E2E2E2F5F5F5F5F5F5F5F5F5F5F5F5F5F5F5F5F5F5F5F5F5F5F5F5F5F5F5F5F5F5F5F5F5F5F5F5F5F5F5F5F5F5F5F5F5F5F5F5F5F5F5F5F5F5F5F5F5F5F5F5F5F5F5F5F5F5F5F5F5F5F5F5F5F5F5F5F5F5F5F5F5F5F5F5F5F5F5F5F5
310
F5F5F5F5F5F5F5F5F5F5F5F5F5F5F5F5F5F5F5F5F5F5F5F5F5F5F5F5F5F5F5F5F5F5F5F5F5F5F5F5F5F5F5F5F5F5F5F5F5F5F5F5F5F5F5F5F5F5F5F5F5F5F5F5F5F5F5F5F5F5F5F5F5F5F5F5F5F5F5F5F5F5F5F5F5F5F5F5E2E2E2F5F5F5F5F5F5F5F5F5F5F5F5F5F5F5F5F5F5F5F5F5F5F5F5F5F5F5F5F5F5F5F5F5F5F5F5
310
F5F5F5F5F5F5F5F5F5F5F5F5F5F5F5F5F5F5F5F5F5F5F5F5F5F5F5F5F5F5F5F5F5F5F5F5F5F5F5F5F5F5F5F5F5F5F5F5F5F5F5F5F5F5F5F5F5F5F5F5F5F5F5F5F5F5F5F5F5F5F5F5F5F5F5F5F5F5F5F5F5F5F5F5F5F5F5F5F5F5F5F5F5F5F5F5F5F5F5F5F5F5F5F5F5F5F5F5F5F5F5F5F5F5F5F5F5F5F5F5F5F5F5F5F5F5F5
310
F5F5F5F5F5F5F5F5F5F5F5F5F5F5E2E2E2F5F5F5F5F5F5F5F5F5F5F5F5F5F5F5F5F5F5F5F5F5F5F5F5F5F5F5F5F5F5F5F5F5F5F5F5F5F5F5F5F5F5F5F5F5F5F5F5F5F5F5F5F5F5F5F5F5F5F5F5F5F5F5F5F5F5F5F5F5F5F5F5F5F5F5F5F5F5F5F5F5F5F5F5F5F5F5F5F5F5F5F5F5F5F5F5F5F5F5F5F5F5F5F5F5F5F5F5F5F5
310
F5F5F5F5F5F5F5F5F5F5F5F5F5F5F5F5F5F5F5F5F5F5F5F5F5F5F5F5F5F5F5F5F5F5F5F5F5F5F5F5F5F5F5F5F5F5F5F5F5F5F5F5F5F5F5F5F5F5F5F5F5F5F5F5F5F5F5E2E2E2F5F5F5F5F5F5F5F5F5F5F5F5F5F5F5F5F5F5F5F5F5F5F5F5F5F5F5F5F5F5F5F5F5F5F5F5F5F5F5F5F5F5F5F5F5F5F5F5F5F5F5F5F5F5F5F5F5
310
F5F5F5F5F5F5F5F5F5F5F5F5F5F5F5F5F5F5F5F5F5F5F5F5F5F5F5F5F5F5F5F5F5F5F5F5F5F5F5F5F5F5F5F5F5F5F5F5F5F5F5F5F5F5F5F5F5F5F5F5F5F5F5F5F5F5F5F5F5F5F5F5F5F5F5F5F5F5F5F5F5F5F5F5F5F5F5F5F5F5F5F5F5F5F5F5F5F5F5F5F5F5F5F5F5F5F5F5F5F5F5F5F5F5F5F5F5F5F5F5E2EFE2E2E2E2E2
310
E2E2E2E2E2E2E2E2E2E2E2E2E2E2E2E2E2E2E2E2E2E2E2E2E2E2E2E2E2E2E2E2E2E2E2E2E2E2E2E2E2E2E2E2E2E2E2E2E2E2E2E2E2E2E2E2E2E2E2E2E2E2E2E2E2E2E2E2E2E2E2E2E2E2E2E2E2E2E2E2E2E2E2E2E2E2E2E2E2E2E2E2E2E2E2E2E2E2E2E2E2E2E2E2E2E2E2E2E2E2E2E2E2E2E2E2E2E2E2E2E2E2E2E2E2E2E2
310
E2E2E2E2E2E2E2E2E2E2E2E2E2E2E2E2E2E2E2E2E2E2E2E2E2E2E2E2E2E2E2E2E2E2E2E2E2E2E2E2E2E2E2E2E2E2E2EF
  0
XRECORD
  5
13B8
102
{ACAD_REACTORS
330
13B7
102
}
330
13B7
100
AcDbXrecord
280
     1
102
SHADEPLOT
 70
     0
102
SHADEPLOTRESLEVEL
 70
     2
102
SHADEPLOTCUSTOMDPI
 70
   300
  0
XRECORD
  5
13BE
102
{ACAD_REACTORS
330
136A
102
}
330
136A
100
AcDbXrecord
280
     1
102
MATERIAL
148
0.0
149
0.0
149
0.0
 93
        0
 94
      127
282
     0
 72
     0
 77
     0
171
     0
175
     0
179
     0
273
     0
  0
XRECORD
  5
136C
102
{ACAD_REACTORS
330
136A
102
}
330
136A
100
AcDbXrecord
280
     1
270
     1
271
     1
  0
XRECORD
  5
136B
102
{ACAD_REACTORS
330
136A
102
}
330
136A
100
AcDbXrecord
280
     1
270
     1
271
     1
  0
XRECORD
  5
136F
102
{ACAD_REACTORS
330
136A
102
}
330
136A
100
AcDbXrecord
280
     1
270
     1
271
     1
  0
XRECORD
  5
136E
102
{ACAD_REACTORS
330
136A
102
}
330
136A
100
AcDbXrecord
280
     1
270
     1
271
     1
  0
XRECORD
  5
1370
102
{ACAD_REACTORS
330
136A
102
}
330
136A
100
AcDbXrecord
280
     1
270
     1
271
     1
  0
XRECORD
  5
136D
102
{ACAD_REACTORS
330
136A
102
}
330
136A
100
AcDbXrecord
280
     1
270
     1
271
     1
  0
XRECORD
  5
13BD
102
{ACAD_REACTORS
330
1362
102
}
330
1362
100
AcDbXrecord
280
     1
102
MATERIAL
148
0.0
149
0.0
149
0.0
 93
        0
 94
      127
282
     0
 72
     0
 77
     0
171
     0
175
     0
179
     0
273
     0
  0
XRECORD
  5
1364
102
{ACAD_REACTORS
330
1362
102
}
330
1362
100
AcDbXrecord
280
     1
270
     1
271
     1
  0
XRECORD
  5
1363
102
{ACAD_REACTORS
330
1362
102
}
330
1362
100
AcDbXrecord
280
     1
270
     1
271
     1
  0
XRECORD
  5
1367
102
{ACAD_REACTORS
330
1362
102
}
330
1362
100
AcDbXrecord
280
     1
270
     1
271
     1
  0
XRECORD
  5
1366
102
{ACAD_REACTORS
330
1362
102
}
330
1362
100
AcDbXrecord
280
     1
270
     1
271
     1
  0
XRECORD
  5
1368
102
{ACAD_REACTORS
330
1362
102
}
330
1362
100
AcDbXrecord
280
     1
270
     1
271
     1
  0
XRECORD
  5
1365
102
{ACAD_REACTORS
330
1362
102
}
330
1362
100
AcDbXrecord
280
     1
270
     1
271
     1
  0
XRECORD
  5
13BF
102
{ACAD_REACTORS
330
1372
102
}
330
1372
100
AcDbXrecord
280
     1
102
MATERIAL
148
0.0
149
0.0
149
0.0
 93
        0
 94
      127
282
     0
 72
     0
 77
     0
171
     0
175
     0
179
     0
273
     0
  0
XRECORD
  5
1374
102
{ACAD_REACTORS
330
1372
102
}
330
1372
100
AcDbXrecord
280
     1
270
     1
271
     1
  0
XRECORD
  5
1373
102
{ACAD_REACTORS
330
1372
102
}
330
1372
100
AcDbXrecord
280
     1
270
     1
271
     1
  0
XRECORD
  5
1377
102
{ACAD_REACTORS
330
1372
102
}
330
1372
100
AcDbXrecord
280
     1
270
     1
271
     1
  0
XRECORD
  5
1376
102
{ACAD_REACTORS
330
1372
102
}
330
1372
100
AcDbXrecord
280
     1
270
     1
271
     1
  0
XRECORD
  5
1378
102
{ACAD_REACTORS
330
1372
102
}
330
1372
100
AcDbXrecord
280
     1
270
     1
271
     1
  0
XRECORD
  5
1375
102
{ACAD_REACTORS
330
1372
102
}
330
1372
100
AcDbXrecord
280
     1
270
     1
271
     1
  0
XRECORD
  5
13B2
102
{ACAD_REACTORS
330
13B1
102
}
330
13B1
100
AcDbXrecord
280
     1
102
ACAD_ROUNDTRIP_2012_MLEADER_STYLE
298
     1
  0
CELLSTYLEMAP
  5
13B0
102
{ACAD_REACTORS
330
13AF
102
}
330
13AF
100
AcDbCellStyleMap
 90
        3
300
CELLSTYLE
  1
TABLEFORMAT_BEGIN
 90
        5
170
     1
 91
        0
 92
    32768
 62
   257
 93
        1
300
CONTENTFORMAT
  1
CONTENTFORMAT_BEGIN
 90
        0
 91
        0
 92
        4
 93
        0
300

 40
0.0
140
1.0
 94
        5
 62
     0
340
11
144
0.25
309
CONTENTFORMAT_END
171
     0
 94
        6
 95
        1
302
GRIDFORMAT
  1
GRIDFORMAT_BEGIN
 90
        0
 91
        1
 62
     0
 92
       -2
340
0
 93
        0
 40
0.045
309
GRIDFORMAT_END
 95
        2
302
GRIDFORMAT
  1
GRIDFORMAT_BEGIN
 90
        0
 91
        1
 62
     0
 92
       -2
340
0
 93
        0
 40
0.045
309
GRIDFORMAT_END
 95
        4
302
GRIDFORMAT
  1
GRIDFORMAT_BEGIN
 90
        0
 91
        1
 62
     0
 92
       -2
340
0
 93
        0
 40
0.045
309
GRIDFORMAT_END
 95
        8
302
GRIDFORMAT
  1
GRIDFORMAT_BEGIN
 90
        0
 91
        1
 62
     0
 92
       -2
340
0
 93
        0
 40
0.045
309
GRIDFORMAT_END
 95
       16
302
GRIDFORMAT
  1
GRIDFORMAT_BEGIN
 90
        0
 91
        1
 62
     0
 92
       -2
340
0
 93
        0
 40
0.045
309
GRIDFORMAT_END
 95
       32
302
GRIDFORMAT
  1
GRIDFORMAT_BEGIN
 90
        0
 91
        1
 62
     0
 92
       -2
340
0
 93
        0
 40
0.045
309
GRIDFORMAT_END
309
TABLEFORMAT_END
  1
CELLSTYLE_BEGIN
 90
        1
 91
        1
300
_TITLE
309
CELLSTYLE_END
300
CELLSTYLE
  1
TABLEFORMAT_BEGIN
 90
        5
170
     1
 91
        0
 92
        0
 62
   257
 93
        1
300
CONTENTFORMAT
  1
CONTENTFORMAT_BEGIN
 90
        0
 91
        0
 92
        4
 93
        0
300

 40
0.0
140
1.0
 94
        5
 62
     0
340
11
144
0.18
309
CONTENTFORMAT_END
171
     0
 94
        6
 95
        1
302
GRIDFORMAT
  1
GRIDFORMAT_BEGIN
 90
        0
 91
        1
 62
     0
 92
       -2
340
0
 93
        0
 40
0.045
309
GRIDFORMAT_END
 95
        2
302
GRIDFORMAT
  1
GRIDFORMAT_BEGIN
 90
        0
 91
        1
 62
     0
 92
       -2
340
0
 93
        0
 40
0.045
309
GRIDFORMAT_END
 95
        4
302
GRIDFORMAT
  1
GRIDFORMAT_BEGIN
 90
        0
 91
        1
 62
     0
 92
       -2
340
0
 93
        0
 40
0.045
309
GRIDFORMAT_END
 95
        8
302
GRIDFORMAT
  1
GRIDFORMAT_BEGIN
 90
        0
 91
        1
 62
     0
 92
       -2
340
0
 93
        0
 40
0.045
309
GRIDFORMAT_END
 95
       16
302
GRIDFORMAT
  1
GRIDFORMAT_BEGIN
 90
        0
 91
        1
 62
     0
 92
       -2
340
0
 93
        0
 40
0.045
309
GRIDFORMAT_END
 95
       32
302
GRIDFORMAT
  1
GRIDFORMAT_BEGIN
 90
        0
 91
        1
 62
     0
 92
       -2
340
0
 93
        0
 40
0.045
309
GRIDFORMAT_END
309
TABLEFORMAT_END
  1
CELLSTYLE_BEGIN
 90
        2
 91
        1
300
_HEADER
309
CELLSTYLE_END
300
CELLSTYLE
  1
TABLEFORMAT_BEGIN
 90
        5
170
     1
 91
        0
 92
        0
 62
   257
 93
        1
300
CONTENTFORMAT
  1
CONTENTFORMAT_BEGIN
 90
        0
 91
        0
 92
        4
 93
        0
300

 40
0.0
140
1.0
 94
        2
 62
     0
340
11
144
0.18
309
CONTENTFORMAT_END
171
     0
 94
        6
 95
        1
302
GRIDFORMAT
  1
GRIDFORMAT_BEGIN
 90
        0
 91
        1
 62
     0
 92
       -2
340
0
 93
        0
 40
0.045
309
GRIDFORMAT_END
 95
        2
302
GRIDFORMAT
  1
GRIDFORMAT_BEGIN
 90
        0
 91
        1
 62
     0
 92
       -2
340
0
 93
        0
 40
0.045
309
GRIDFORMAT_END
 95
        4
302
GRIDFORMAT
  1
GRIDFORMAT_BEGIN
 90
        0
 91
        1
 62
     0
 92
       -2
340
0
 93
        0
 40
0.045
309
GRIDFORMAT_END
 95
        8
302
GRIDFORMAT
  1
GRIDFORMAT_BEGIN
 90
        0
 91
        1
 62
     0
 92
       -2
340
0
 93
        0
 40
0.045
309
GRIDFORMAT_END
 95
       16
302
GRIDFORMAT
  1
GRIDFORMAT_BEGIN
 90
        0
 91
        1
 62
     0
 92
       -2
340
0
 93
        0
 40
0.045
309
GRIDFORMAT_END
 95
       32
302
GRIDFORMAT
  1
GRIDFORMAT_BEGIN
 90
        0
 91
        1
 62
     0
 92
       -2
340
0
 93
        0
 40
0.045
309
GRIDFORMAT_END
309
TABLEFORMAT_END
  1
CELLSTYLE_BEGIN
 90
        3
 91
        2
300
_DATA
309
CELLSTYLE_END
  0
XRECORD
  5
13BA
102
{ACAD_REACTORS
330
13AF
102
}
330
13AF
100
AcDbXrecord
280
     1
102
ACAD_ROUNDTRIP_PRE2007_TABLESTYLE
 90
        4
 91
        0
  1

 92
        4
 93
        0
  2

 94
        4
 95
        0
  3

  0
XRECORD
  5
13CB
102
{ACAD_REACTORS
330
13CA
102
}
330
13CA
100
AcDbXrecord
280
     1
102
RTVSPropertyOp0
 70
     1
102
RTVSPropertyOp1
 70
     1
102
RTVSPropertyOp2
 70
     1
102
RTVSPropertyOp3
 70
     1
102
RTVSPropertyOp4
 70
     1
102
RTVSPropertyOp5
 70
     1
102
RTVSPropertyOp6
 70
     1
102
RTVSPropertyOp7
 70
     1
102
RTVSPropertyOp8
 70
     1
102
RTVSPropertyOp9
 70
     1
102
RTVSPropertyOp10
 70
     1
102
RTVSPropertyOp11
 70
     1
102
RTVSPropertyOp12
 70
     1
102
RTVSPropertyOp13
 70
     1
102
RTVSPropertyOp14
 70
     1
102
RTVSPropertyOp15
 70
     1
102
RTVSPropertyOp16
 70
     1
102
RTVSPropertyOp17
 70
     1
102
RTVSPropertyOp18
 70
     1
102
RTVSPropertyOp19
 70
     1
102
RTVSPropertyOp20
 70
     1
102
RTVSPropertyOp21
 70
     1
102
RTVSPropertyOp22
 70
     1
102
RTVSPropertyOp23
 70
     1
102
RTVSPropertyOp24
 70
     1
102
RTVSPropertyOp25
 70
     1
102
RTVSPropertyOp26
 70
     1
102
RTVSPropertyOp27
 70
     1
102
RTVSPropertyOp28
 70
     1
102
RTVSPropertyOp29
 70
     1
102
RTVSPropertyOp30
 70
     1
102
RTVSPropertyOp31
 70
     1
102
RTVSPropertyOp32
 70
     1
  0
XRECORD
  5
13C9
102
{ACAD_REACTORS
330
13C8
102
}
330
13C8
100
AcDbXrecord
280
     1
102
RTVSPropertyOp0
 70
     1
102
RTVSPropertyOp1
 70
     1
102
RTVSPropertyOp2
 70
     1
102
RTVSPropertyOp3
 70
     1
102
RTVSPropertyOp4
 70
     1
102
RTVSPropertyOp5
 70
     1
102
RTVSPropertyOp6
 70
     1
102
RTVSPropertyOp7
 70
     1
102
RTVSPropertyOp8
 70
     1
102
RTVSPropertyOp9
 70
     1
102
RTVSPropertyOp10
 70
     1
102
RTVSPropertyOp11
 70
     1
102
RTVSPropertyOp12
 70
     1
102
RTVSPropertyOp13
 70
     1
102
RTVSPropertyOp14
 70
     1
102
RTVSPropertyOp15
 70
     1
102
RTVSPropertyOp16
 70
     1
102
RTVSPropertyOp17
 70
     1
102
RTVSPropertyOp18
 70
     1
102
RTVSPropertyOp19
 70
     1
102
RTVSPropertyOp20
 70
     1
102
RTVSPropertyOp21
 70
     1
102
RTVSPropertyOp22
 70
     1
102
RTVSPropertyOp23
 70
     1
102
RTVSPropertyOp24
 70
     1
102
RTVSPropertyOp25
 70
     1
102
RTVSPropertyOp26
 70
     1
102
RTVSPropertyOp27
 70
     1
102
RTVSPropertyOp28
 70
     1
102
RTVSPropertyOp29
 70
     1
102
RTVSPropertyOp30
 70
     1
102
RTVSPropertyOp31
 70
     1
102
RTVSPropertyOp32
 70
     1
  0
XRECORD
  5
13D7
102
{ACAD_REACTORS
330
13D6
102
}
330
13D6
100
AcDbXrecord
280
     1
102
RTVSPropertyOp0
 70
     1
102
RTVSPropertyOp1
 70
     1
102
RTVSPropertyOp2
 70
     1
102
RTVSPropertyOp3
 70
     1
102
RTVSPropertyOp4
 70
     1
102
RTVSPropertyOp5
 70
     1
102
RTVSPropertyOp6
 70
     1
102
RTVSPropertyOp7
 70
     1
102
RTVSPropertyOp8
 70
     1
102
RTVSPropertyOp9
 70
     1
102
RTVSPropertyOp10
 70
     1
102
RTVSPropertyOp11
 70
     1
102
RTVSPropertyOp12
 70
     1
102
RTVSPropertyOp13
 70
     1
102
RTVSPropertyOp14
 70
     1
102
RTVSPropertyOp15
 70
     1
102
RTVSPropertyOp16
 70
     1
102
RTVSPropertyOp17
 70
     1
102
RTVSPropertyOp18
 70
     1
102
RTVSPropertyOp19
 70
     1
102
RTVSPropertyOp20
 70
     1
102
RTVSPropertyOp21
 70
     1
102
RTVSPropertyOp22
 70
     1
102
RTVSPropertyOp23
 70
     1
102
RTVSPropertyOp24
 70
     1
102
RTVSPropertyOp25
 70
     1
102
RTVSPropertyOp26
 70
     1
102
RTVSPropertyOp27
 70
     1
102
RTVSPropertyOp28
 70
     1
102
RTVSPropertyOp29
 70
     1
102
RTVSPropertyOp30
 70
     1
102
RTVSPropertyOp31
 70
     1
102
RTVSPropertyOp32
 70
     1
  0
XRECORD
  5
13DF
102
{ACAD_REACTORS
330
13DE
102
}
330
13DE
100
AcDbXrecord
280
     1
102
RTVSPropertyOp0
 70
     1
102
RTVSPropertyOp1
 70
     1
102
RTVSPropertyOp2
 70
     1
102
RTVSPropertyOp3
 70
     1
102
RTVSPropertyOp4
 70
     1
102
RTVSPropertyOp5
 70
     1
102
RTVSPropertyOp6
 70
     1
102
RTVSPropertyOp7
 70
     1
102
RTVSPropertyOp8
 70
     1
102
RTVSPropertyOp9
 70
     1
102
RTVSPropertyOp10
 70
     1
102
RTVSPropertyOp11
 70
     1
102
RTVSPropertyOp12
 70
     1
102
RTVSPropertyOp13
 70
     1
102
RTVSPropertyOp14
 70
     1
102
RTVSPropertyOp15
 70
     1
102
RTVSPropertyOp16
 70
     1
102
RTVSPropertyOp17
 70
     1
102
RTVSPropertyOp18
 70
     1
102
RTVSPropertyOp19
 70
     1
102
RTVSPropertyOp20
 70
     1
102
RTVSPropertyOp21
 70
     1
102
RTVSPropertyOp22
 70
     1
102
RTVSPropertyOp23
 70
     1
102
RTVSPropertyOp24
 70
     1
102
RTVSPropertyOp25
 70
     1
102
RTVSPropertyOp26
 70
     1
102
RTVSPropertyOp27
 70
     1
102
RTVSPropertyOp28
 70
     1
102
RTVSPropertyOp29
 70
     1
102
RTVSPropertyOp30
 70
     1
102
RTVSPropertyOp31
 70
     1
102
RTVSPropertyOp32
 70
     1
  0
XRECORD
  5
13D1
102
{ACAD_REACTORS
330
13D0
102
}
330
13D0
100
AcDbXrecord
280
     1
102
RTVSPropertyOp0
 70
     1
102
RTVSPropertyOp1
 70
     1
102
RTVSPropertyOp2
 70
     1
102
RTVSPropertyOp3
 70
     1
102
RTVSPropertyOp4
 70
     1
102
RTVSPropertyOp5
 70
     1
102
RTVSPropertyOp6
 70
     1
102
RTVSPropertyOp7
 70
     1
102
RTVSPropertyOp8
 70
     1
102
RTVSPropertyOp9
 70
     1
102
RTVSPropertyOp10
 70
     1
102
RTVSPropertyOp11
 70
     1
102
RTVSPropertyOp12
 70
     1
102
RTVSPropertyOp13
 70
     1
102
RTVSPropertyOp14
 70
     1
102
RTVSPropertyOp15
 70
     1
102
RTVSPropertyOp16
 70
     1
102
RTVSPropertyOp17
 70
     1
102
RTVSPropertyOp18
 70
     1
102
RTVSPropertyOp19
 70
     1
102
RTVSPropertyOp20
 70
     1
102
RTVSPropertyOp21
 70
     1
102
RTVSPropertyOp22
 70
     1
102
RTVSPropertyOp23
 70
     1
102
RTVSPropertyOp24
 70
     1
102
RTVSPropertyOp25
 70
     1
102
RTVSPropertyOp26
 70
     1
102
RTVSPropertyOp27
 70
     1
102
RTVSPropertyOp28
 70
     1
102
RTVSPropertyOp29
 70
     1
102
RTVSPropertyOp30
 70
     1
102
RTVSPropertyOp31
 70
     1
102
RTVSPropertyOp32
 70
     1
  0
XRECORD
  5
13D5
102
{ACAD_REACTORS
330
13D4
102
}
330
13D4
100
AcDbXrecord
280
     1
102
RTVSPropertyOp0
 70
     1
102
RTVSPropertyOp1
 70
     1
102
RTVSPropertyOp2
 70
     1
102
RTVSPropertyOp3
 70
     1
102
RTVSPropertyOp4
 70
     1
102
RTVSPropertyOp5
 70
     1
102
RTVSPropertyOp6
 70
     1
102
RTVSPropertyOp7
 70
     1
102
RTVSPropertyOp8
 70
     1
102
RTVSPropertyOp9
 70
     1
102
RTVSPropertyOp10
 70
     1
102
RTVSPropertyOp11
 70
     1
102
RTVSPropertyOp12
 70
     1
102
RTVSPropertyOp13
 70
     1
102
RTVSPropertyOp14
 70
     1
102
RTVSPropertyOp15
 70
     1
102
RTVSPropertyOp16
 70
     1
102
RTVSPropertyOp17
 70
     1
102
RTVSPropertyOp18
 70
     1
102
RTVSPropertyOp19
 70
     1
102
RTVSPropertyOp20
 70
     1
102
RTVSPropertyOp21
 70
     1
102
RTVSPropertyOp22
 70
     1
102
RTVSPropertyOp23
 70
     1
102
RTVSPropertyOp24
 70
     1
102
RTVSPropertyOp25
 70
     1
102
RTVSPropertyOp26
 70
     1
102
RTVSPropertyOp27
 70
     1
102
RTVSPropertyOp28
 70
     1
102
RTVSPropertyOp29
 70
     1
102
RTVSPropertyOp30
 70
     1
102
RTVSPropertyOp31
 70
     1
102
RTVSPropertyOp32
 70
     1
  0
XRECORD
  5
13EF
102
{ACAD_REACTORS
330
13EE
102
}
330
13EE
100
AcDbXrecord
280
     1
102
RTVSPropertyOp0
 70
     0
102
RTVSPropertyOp1
 70
     0
102
RTVSPropertyOp2
 70
     0
102
RTVSPropertyOp3
 70
     0
102
RTVSPropertyOp4
 70
     0
102
RTVSPropertyOp5
 70
     0
102
RTVSPropertyOp6
 70
     0
102
RTVSPropertyOp7
 70
     0
102
RTVSPropertyOp8
 70
     0
102
RTVSPropertyOp9
 70
     0
102
RTVSPropertyOp10
 70
     0
102
RTVSPropertyOp11
 70
     0
102
RTVSPropertyOp12
 70
     0
102
RTVSPropertyOp13
 70
     0
102
RTVSPropertyOp14
 70
     2
102
RTVSPropertyOp15
 70
     0
102
RTVSPropertyOp16
 70
     0
102
RTVSPropertyOp17
 70
     0
102
RTVSPropertyOp18
 70
     0
102
RTVSPropertyOp19
 70
     0
102
RTVSPropertyOp20
 70
     0
102
RTVSPropertyOp21
 70
     0
102
RTVSPropertyOp22
 70
     0
102
RTVSPropertyOp23
 70
     0
102
RTVSPropertyOp24
 70
     0
102
RTVSPropertyOp25
 70
     0
102
RTVSPropertyOp26
 70
     0
102
RTVSPropertyOp27
 70
     0
102
RTVSPropertyOp28
 70
     0
102
RTVSPropertyOp29
 70
     0
102
RTVSPropertyOp30
 70
     0
102
RTVSPropertyOp31
 70
     0
102
RTVSPropertyOp32
 70
     0
  0
XRECORD
  5
13DD
102
{ACAD_REACTORS
330
13DC
102
}
330
13DC
100
AcDbXrecord
280
     1
102
RTVSPropertyOp0
 70
     1
102
RTVSPropertyOp1
 70
     1
102
RTVSPropertyOp2
 70
     1
102
RTVSPropertyOp3
 70
     1
102
RTVSPropertyOp4
 70
     1
102
RTVSPropertyOp5
 70
     1
102
RTVSPropertyOp6
 70
     1
102
RTVSPropertyOp7
 70
     1
102
RTVSPropertyOp8
 70
     1
102
RTVSPropertyOp9
 70
     1
102
RTVSPropertyOp10
 70
     1
102
RTVSPropertyOp11
 70
     1
102
RTVSPropertyOp12
 70
     1
102
RTVSPropertyOp13
 70
     1
102
RTVSPropertyOp14
 70
     1
102
RTVSPropertyOp15
 70
     1
102
RTVSPropertyOp16
 70
     1
102
RTVSPropertyOp17
 70
     1
102
RTVSPropertyOp18
 70
     1
102
RTVSPropertyOp19
 70
     1
102
RTVSPropertyOp20
 70
     1
102
RTVSPropertyOp21
 70
     1
102
RTVSPropertyOp22
 70
     1
102
RTVSPropertyOp23
 70
     1
102
RTVSPropertyOp24
 70
     1
102
RTVSPropertyOp25
 70
     1
102
RTVSPropertyOp26
 70
     1
102
RTVSPropertyOp27
 70
     1
102
RTVSPropertyOp28
 70
     1
102
RTVSPropertyOp29
 70
     1
102
RTVSPropertyOp30
 70
     1
102
RTVSPropertyOp31
 70
     1
102
RTVSPropertyOp32
 70
     1
  0
XRECORD
  5
13C1
102
{ACAD_REACTORS
330
13C0
102
}
330
13C0
100
AcDbXrecord
280
     1
102
RTVSPropertyOp0
 70
     1
102
RTVSPropertyOp1
 70
     1
102
RTVSPropertyOp2
 70
     1
102
RTVSPropertyOp3
 70
     1
102
RTVSPropertyOp4
 70
     1
102
RTVSPropertyOp5
 70
     1
102
RTVSPropertyOp6
 70
     1
102
RTVSPropertyOp7
 70
     1
102
RTVSPropertyOp8
 70
     1
102
RTVSPropertyOp9
 70
     1
102
RTVSPropertyOp10
 70
     1
102
RTVSPropertyOp11
 70
     1
102
RTVSPropertyOp12
 70
     1
102
RTVSPropertyOp13
 70
     1
102
RTVSPropertyOp14
 70
     1
102
RTVSPropertyOp15
 70
     1
102
RTVSPropertyOp16
 70
     1
102
RTVSPropertyOp17
 70
     1
102
RTVSPropertyOp18
 70
     1
102
RTVSPropertyOp19
 70
     1
102
RTVSPropertyOp20
 70
     1
102
RTVSPropertyOp21
 70
     1
102
RTVSPropertyOp22
 70
     1
102
RTVSPropertyOp23
 70
     1
102
RTVSPropertyOp24
 70
     1
102
RTVSPropertyOp25
 70
     1
102
RTVSPropertyOp26
 70
     1
102
RTVSPropertyOp27
 70
     1
102
RTVSPropertyOp28
 70
     1
102
RTVSPropertyOp29
 70
     1
102
RTVSPropertyOp30
 70
     1
102
RTVSPropertyOp31
 70
     1
102
RTVSPropertyOp32
 70
     1
  0
XRECORD
  5
13C3
102
{ACAD_REACTORS
330
13C2
102
}
330
13C2
100
AcDbXrecord
280
     1
102
RTVSPropertyOp0
 70
     1
102
RTVSPropertyOp1
 70
     1
102
RTVSPropertyOp2
 70
     1
102
RTVSPropertyOp3
 70
     1
102
RTVSPropertyOp4
 70
     1
102
RTVSPropertyOp5
 70
     1
102
RTVSPropertyOp6
 70
     1
102
RTVSPropertyOp7
 70
     1
102
RTVSPropertyOp8
 70
     1
102
RTVSPropertyOp9
 70
     1
102
RTVSPropertyOp10
 70
     1
102
RTVSPropertyOp11
 70
     1
102
RTVSPropertyOp12
 70
     1
102
RTVSPropertyOp13
 70
     1
102
RTVSPropertyOp14
 70
     1
102
RTVSPropertyOp15
 70
     1
102
RTVSPropertyOp16
 70
     1
102
RTVSPropertyOp17
 70
     1
102
RTVSPropertyOp18
 70
     1
102
RTVSPropertyOp19
 70
     1
102
RTVSPropertyOp20
 70
     1
102
RTVSPropertyOp21
 70
     1
102
RTVSPropertyOp22
 70
     1
102
RTVSPropertyOp23
 70
     1
102
RTVSPropertyOp24
 70
     1
102
RTVSPropertyOp25
 70
     1
102
RTVSPropertyOp26
 70
     1
102
RTVSPropertyOp27
 70
     1
102
RTVSPropertyOp28
 70
     1
102
RTVSPropertyOp29
 70
     1
102
RTVSPropertyOp30
 70
     1
102
RTVSPropertyOp31
 70
     1
102
RTVSPropertyOp32
 70
     1
  0
XRECORD
  5
13C5
102
{ACAD_REACTORS
330
13C4
102
}
330
13C4
100
AcDbXrecord
280
     1
102
RTVSPropertyOp0
 70
     1
102
RTVSPropertyOp1
 70
     1
102
RTVSPropertyOp2
 70
     1
102
RTVSPropertyOp3
 70
     1
102
RTVSPropertyOp4
 70
     1
102
RTVSPropertyOp5
 70
     1
102
RTVSPropertyOp6
 70
     1
102
RTVSPropertyOp7
 70
     1
102
RTVSPropertyOp8
 70
     1
102
RTVSPropertyOp9
 70
     1
102
RTVSPropertyOp10
 70
     1
102
RTVSPropertyOp11
 70
     1
102
RTVSPropertyOp12
 70
     1
102
RTVSPropertyOp13
 70
     1
102
RTVSPropertyOp14
 70
     1
102
RTVSPropertyOp15
 70
     1
102
RTVSPropertyOp16
 70
     1
102
RTVSPropertyOp17
 70
     1
102
RTVSPropertyOp18
 70
     1
102
RTVSPropertyOp19
 70
     1
102
RTVSPropertyOp20
 70
     1
102
RTVSPropertyOp21
 70
     1
102
RTVSPropertyOp22
 70
     1
102
RTVSPropertyOp23
 70
     1
102
RTVSPropertyOp24
 70
     1
102
RTVSPropertyOp25
 70
     1
102
RTVSPropertyOp26
 70
     1
102
RTVSPropertyOp27
 70
     1
102
RTVSPropertyOp28
 70
     1
102
RTVSPropertyOp29
 70
     1
102
RTVSPropertyOp30
 70
     1
102
RTVSPropertyOp31
 70
     1
102
RTVSPropertyOp32
 70
     1
  0
XRECORD
  5
13C7
102
{ACAD_REACTORS
330
13C6
102
}
330
13C6
100
AcDbXrecord
280
     1
102
RTVSPropertyOp0
 70
     1
102
RTVSPropertyOp1
 70
     1
102
RTVSPropertyOp2
 70
     1
102
RTVSPropertyOp3
 70
     1
102
RTVSPropertyOp4
 70
     1
102
RTVSPropertyOp5
 70
     1
102
RTVSPropertyOp6
 70
     1
102
RTVSPropertyOp7
 70
     1
102
RTVSPropertyOp8
 70
     1
102
RTVSPropertyOp9
 70
     1
102
RTVSPropertyOp10
 70
     1
102
RTVSPropertyOp11
 70
     1
102
RTVSPropertyOp12
 70
     1
102
RTVSPropertyOp13
 70
     1
102
RTVSPropertyOp14
 70
     1
102
RTVSPropertyOp15
 70
     1
102
RTVSPropertyOp16
 70
     1
102
RTVSPropertyOp17
 70
     1
102
RTVSPropertyOp18
 70
     1
102
RTVSPropertyOp19
 70
     1
102
RTVSPropertyOp20
 70
     1
102
RTVSPropertyOp21
 70
     1
102
RTVSPropertyOp22
 70
     1
102
RTVSPropertyOp23
 70
     1
102
RTVSPropertyOp24
 70
     1
102
RTVSPropertyOp25
 70
     1
102
RTVSPropertyOp26
 70
     1
102
RTVSPropertyOp27
 70
     1
102
RTVSPropertyOp28
 70
     1
102
RTVSPropertyOp29
 70
     1
102
RTVSPropertyOp30
 70
     1
102
RTVSPropertyOp31
 70
     1
102
RTVSPropertyOp32
 70
     1
  0
XRECORD
  5
13CF
102
{ACAD_REACTORS
330
13CE
102
}
330
13CE
100
AcDbXrecord
280
     1
102
RTVSPropertyOp0
 70
     1
102
RTVSPropertyOp1
 70
     1
102
RTVSPropertyOp2
 70
     1
102
RTVSPropertyOp3
 70
     1
102
RTVSPropertyOp4
 70
     1
102
RTVSPropertyOp5
 70
     1
102
RTVSPropertyOp6
 70
     1
102
RTVSPropertyOp7
 70
     1
102
RTVSPropertyOp8
 70
     1
102
RTVSPropertyOp9
 70
     1
102
RTVSPropertyOp10
 70
     1
102
RTVSPropertyOp11
 70
     1
102
RTVSPropertyOp12
 70
     1
102
RTVSPropertyOp13
 70
     1
102
RTVSPropertyOp14
 70
     1
102
RTVSPropertyOp15
 70
     1
102
RTVSPropertyOp16
 70
     1
102
RTVSPropertyOp17
 70
     1
102
RTVSPropertyOp18
 70
     1
102
RTVSPropertyOp19
 70
     1
102
RTVSPropertyOp20
 70
     1
102
RTVSPropertyOp21
 70
     1
102
RTVSPropertyOp22
 70
     1
102
RTVSPropertyOp23
 70
     1
102
RTVSPropertyOp24
 70
     1
102
RTVSPropertyOp25
 70
     1
102
RTVSPropertyOp26
 70
     1
102
RTVSPropertyOp27
 70
     1
102
RTVSPropertyOp28
 70
     1
102
RTVSPropertyOp29
 70
     1
102
RTVSPropertyOp30
 70
     1
102
RTVSPropertyOp31
 70
     1
102
RTVSPropertyOp32
 70
     1
  0
XRECORD
  5
13EB
102
{ACAD_REACTORS
330
13EA
102
}
330
13EA
100
AcDbXrecord
280
     1
102
RTVSPropertyOp0
 70
     0
102
RTVSPropertyOp1
 70
     0
102
RTVSPropertyOp2
 70
     0
102
RTVSPropertyOp3
 70
     0
102
RTVSPropertyOp4
 70
     0
102
RTVSPropertyOp5
 70
     0
102
RTVSPropertyOp6
 70
     0
102
RTVSPropertyOp7
 70
     0
102
RTVSPropertyOp8
 70
     0
102
RTVSPropertyOp9
 70
     0
102
RTVSPropertyOp10
 70
     0
102
RTVSPropertyOp11
 70
     0
102
RTVSPropertyOp12
 70
     0
102
RTVSPropertyOp13
 70
     0
102
RTVSPropertyOp14
 70
     2
102
RTVSPropertyOp15
 70
     0
102
RTVSPropertyOp16
 70
     0
102
RTVSPropertyOp17
 70
     0
102
RTVSPropertyOp18
 70
     0
102
RTVSPropertyOp19
 70
     0
102
RTVSPropertyOp20
 70
     0
102
RTVSPropertyOp21
 70
     0
102
RTVSPropertyOp22
 70
     0
102
RTVSPropertyOp23
 70
     0
102
RTVSPropertyOp24
 70
     0
102
RTVSPropertyOp25
 70
     0
102
RTVSPropertyOp26
 70
     0
102
RTVSPropertyOp27
 70
     0
102
RTVSPropertyOp28
 70
     0
102
RTVSPropertyOp29
 70
     0
102
RTVSPropertyOp30
 70
     0
102
RTVSPropertyOp31
 70
     0
102
RTVSPropertyOp32
 70
     0
  0
XRECORD
  5
13DB
102
{ACAD_REACTORS
330
13DA
102
}
330
13DA
100
AcDbXrecord
280
     1
102
RTVSPropertyOp0
 70
     1
102
RTVSPropertyOp1
 70
     1
102
RTVSPropertyOp2
 70
     1
102
RTVSPropertyOp3
 70
     1
102
RTVSPropertyOp4
 70
     1
102
RTVSPropertyOp5
 70
     1
102
RTVSPropertyOp6
 70
     1
102
RTVSPropertyOp7
 70
     1
102
RTVSPropertyOp8
 70
     1
102
RTVSPropertyOp9
 70
     1
102
RTVSPropertyOp10
 70
     1
102
RTVSPropertyOp11
 70
     1
102
RTVSPropertyOp12
 70
     1
102
RTVSPropertyOp13
 70
     1
102
RTVSPropertyOp14
 70
     1
102
RTVSPropertyOp15
 70
     1
102
RTVSPropertyOp16
 70
     1
102
RTVSPropertyOp17
 70
     1
102
RTVSPropertyOp18
 70
     1
102
RTVSPropertyOp19
 70
     1
102
RTVSPropertyOp20
 70
     1
102
RTVSPropertyOp21
 70
     1
102
RTVSPropertyOp22
 70
     1
102
RTVSPropertyOp23
 70
     1
102
RTVSPropertyOp24
 70
     1
102
RTVSPropertyOp25
 70
     1
102
RTVSPropertyOp26
 70
     1
102
RTVSPropertyOp27
 70
     1
102
RTVSPropertyOp28
 70
     1
102
RTVSPropertyOp29
 70
     1
102
RTVSPropertyOp30
 70
     1
102
RTVSPropertyOp31
 70
     1
102
RTVSPropertyOp32
 70
     1
  0
XRECORD
  5
13ED
102
{ACAD_REACTORS
330
13EC
102
}
330
13EC
100
AcDbXrecord
280
     1
102
RTVSPropertyOp0
 70
     0
102
RTVSPropertyOp1
 70
     0
102
RTVSPropertyOp2
 70
     0
102
RTVSPropertyOp3
 70
     0
102
RTVSPropertyOp4
 70
     0
102
RTVSPropertyOp5
 70
     0
102
RTVSPropertyOp6
 70
     0
102
RTVSPropertyOp7
 70
     0
102
RTVSPropertyOp8
 70
     0
102
RTVSPropertyOp9
 70
     0
102
RTVSPropertyOp10
 70
     0
102
RTVSPropertyOp11
 70
     0
102
RTVSPropertyOp12
 70
     0
102
RTVSPropertyOp13
 70
     0
102
RTVSPropertyOp14
 70
     2
102
RTVSPropertyOp15
 70
     0
102
RTVSPropertyOp16
 70
     0
102
RTVSPropertyOp17
 70
     0
102
RTVSPropertyOp18
 70
     0
102
RTVSPropertyOp19
 70
     0
102
RTVSPropertyOp20
 70
     0
102
RTVSPropertyOp21
 70
     0
102
RTVSPropertyOp22
 70
     0
102
RTVSPropertyOp23
 70
     0
102
RTVSPropertyOp24
 70
     0
102
RTVSPropertyOp25
 70
     0
102
RTVSPropertyOp26
 70
     0
102
RTVSPropertyOp27
 70
     0
102
RTVSPropertyOp28
 70
     0
102
RTVSPropertyOp29
 70
     0
102
RTVSPropertyOp30
 70
     0
102
RTVSPropertyOp31
 70
     0
102
RTVSPropertyOp32
 70
     0
  0
XRECORD
  5
13D3
102
{ACAD_REACTORS
330
13D2
102
}
330
13D2
100
AcDbXrecord
280
     1
102
RTVSPropertyOp0
 70
     1
102
RTVSPropertyOp1
 70
     1
102
RTVSPropertyOp2
 70
     1
102
RTVSPropertyOp3
 70
     1
102
RTVSPropertyOp4
 70
     1
102
RTVSPropertyOp5
 70
     1
102
RTVSPropertyOp6
 70
     1
102
RTVSPropertyOp7
 70
     1
102
RTVSPropertyOp8
 70
     1
102
RTVSPropertyOp9
 70
     1
102
RTVSPropertyOp10
 70
     1
102
RTVSPropertyOp11
 70
     1
102
RTVSPropertyOp12
 70
     1
102
RTVSPropertyOp13
 70
     1
102
RTVSPropertyOp14
 70
     1
102
RTVSPropertyOp15
 70
     1
102
RTVSPropertyOp16
 70
     1
102
RTVSPropertyOp17
 70
     1
102
RTVSPropertyOp18
 70
     1
102
RTVSPropertyOp19
 70
     1
102
RTVSPropertyOp20
 70
     1
102
RTVSPropertyOp21
 70
     1
102
RTVSPropertyOp22
 70
     1
102
RTVSPropertyOp23
 70
     1
102
RTVSPropertyOp24
 70
     1
102
RTVSPropertyOp25
 70
     1
102
RTVSPropertyOp26
 70
     1
102
RTVSPropertyOp27
 70
     1
102
RTVSPropertyOp28
 70
     1
102
RTVSPropertyOp29
 70
     1
102
RTVSPropertyOp30
 70
     1
102
RTVSPropertyOp31
 70
     1
102
RTVSPropertyOp32
 70
     1
  0
XRECORD
  5
13E9
102
{ACAD_REACTORS
330
13E8
102
}
330
13E8
100
AcDbXrecord
280
     1
102
RTVSPropertyOp0
 70
     1
102
RTVSPropertyOp1
 70
     1
102
RTVSPropertyOp2
 70
     1
102
RTVSPropertyOp3
 70
     1
102
RTVSPropertyOp4
 70
     1
102
RTVSPropertyOp5
 70
     1
102
RTVSPropertyOp6
 70
     1
102
RTVSPropertyOp7
 70
     1
102
RTVSPropertyOp8
 70
     1
102
RTVSPropertyOp9
 70
     1
102
RTVSPropertyOp10
 70
     1
102
RTVSPropertyOp11
 70
     1
102
RTVSPropertyOp12
 70
     1
102
RTVSPropertyOp13
 70
     1
102
RTVSPropertyOp14
 70
     1
102
RTVSPropertyOp15
 70
     1
102
RTVSPropertyOp16
 70
     1
102
RTVSPropertyOp17
 70
     1
102
RTVSPropertyOp18
 70
     1
102
RTVSPropertyOp19
 70
     1
102
RTVSPropertyOp20
 70
     1
102
RTVSPropertyOp21
 70
     1
102
RTVSPropertyOp22
 70
     1
102
RTVSPropertyOp23
 70
     1
102
RTVSPropertyOp24
 70
     1
102
RTVSPropertyOp25
 70
     1
102
RTVSPropertyOp26
 70
     1
102
RTVSPropertyOp27
 70
     1
102
RTVSPropertyOp28
 70
     1
102
RTVSPropertyOp29
 70
     1
102
RTVSPropertyOp30
 70
     1
102
RTVSPropertyOp31
 70
     1
102
RTVSPropertyOp32
 70
     1
  0
XRECORD
  5
13E7
102
{ACAD_REACTORS
330
13E6
102
}
330
13E6
100
AcDbXrecord
280
     1
102
RTVSPropertyOp0
 70
     1
102
RTVSPropertyOp1
 70
     1
102
RTVSPropertyOp2
 70
     1
102
RTVSPropertyOp3
 70
     1
102
RTVSPropertyOp4
 70
     1
102
RTVSPropertyOp5
 70
     1
102
RTVSPropertyOp6
 70
     1
102
RTVSPropertyOp7
 70
     1
102
RTVSPropertyOp8
 70
     1
102
RTVSPropertyOp9
 70
     1
102
RTVSPropertyOp10
 70
     1
102
RTVSPropertyOp11
 70
     1
102
RTVSPropertyOp12
 70
     1
102
RTVSPropertyOp13
 70
     1
102
RTVSPropertyOp14
 70
     1
102
RTVSPropertyOp15
 70
     1
102
RTVSPropertyOp16
 70
     1
102
RTVSPropertyOp17
 70
     1
102
RTVSPropertyOp18
 70
     1
102
RTVSPropertyOp19
 70
     1
102
RTVSPropertyOp20
 70
     1
102
RTVSPropertyOp21
 70
     1
102
RTVSPropertyOp22
 70
     1
102
RTVSPropertyOp23
 70
     1
102
RTVSPropertyOp24
 70
     1
102
RTVSPropertyOp25
 70
     1
102
RTVSPropertyOp26
 70
     1
102
RTVSPropertyOp27
 70
     1
102
RTVSPropertyOp28
 70
     1
102
RTVSPropertyOp29
 70
     1
102
RTVSPropertyOp30
 70
     1
102
RTVSPropertyOp31
 70
     1
102
RTVSPropertyOp32
 70
     1
  0
XRECORD
  5
13E1
102
{ACAD_REACTORS
330
13E0
102
}
330
13E0
100
AcDbXrecord
280
     1
102
RTVSPropertyOp0
 70
     1
102
RTVSPropertyOp1
 70
     1
102
RTVSPropertyOp2
 70
     1
102
RTVSPropertyOp3
 70
     1
102
RTVSPropertyOp4
 70
     1
102
RTVSPropertyOp5
 70
     1
102
RTVSPropertyOp6
 70
     1
102
RTVSPropertyOp7
 70
     1
102
RTVSPropertyOp8
 70
     1
102
RTVSPropertyOp9
 70
     1
102
RTVSPropertyOp10
 70
     1
102
RTVSPropertyOp11
 70
     1
102
RTVSPropertyOp12
 70
     1
102
RTVSPropertyOp13
 70
     1
102
RTVSPropertyOp14
 70
     1
102
RTVSPropertyOp15
 70
     1
102
RTVSPropertyOp16
 70
     1
102
RTVSPropertyOp17
 70
     1
102
RTVSPropertyOp18
 70
     1
102
RTVSPropertyOp19
 70
     1
102
RTVSPropertyOp20
 70
     1
102
RTVSPropertyOp21
 70
     1
102
RTVSPropertyOp22
 70
     1
102
RTVSPropertyOp23
 70
     1
102
RTVSPropertyOp24
 70
     1
102
RTVSPropertyOp25
 70
     1
102
RTVSPropertyOp26
 70
     1
102
RTVSPropertyOp27
 70
     1
102
RTVSPropertyOp28
 70
     1
102
RTVSPropertyOp29
 70
     1
102
RTVSPropertyOp30
 70
     1
102
RTVSPropertyOp31
 70
     1
102
RTVSPropertyOp32
 70
     1
  0
XRECORD
  5
13E3
102
{ACAD_REACTORS
330
13E2
102
}
330
13E2
100
AcDbXrecord
280
     1
102
RTVSPropertyOp0
 70
     1
102
RTVSPropertyOp1
 70
     1
102
RTVSPropertyOp2
 70
     1
102
RTVSPropertyOp3
 70
     1
102
RTVSPropertyOp4
 70
     1
102
RTVSPropertyOp5
 70
     1
102
RTVSPropertyOp6
 70
     1
102
RTVSPropertyOp7
 70
     1
102
RTVSPropertyOp8
 70
     1
102
RTVSPropertyOp9
 70
     1
102
RTVSPropertyOp10
 70
     1
102
RTVSPropertyOp11
 70
     1
102
RTVSPropertyOp12
 70
     1
102
RTVSPropertyOp13
 70
     1
102
RTVSPropertyOp14
 70
     1
102
RTVSPropertyOp15
 70
     1
102
RTVSPropertyOp16
 70
     1
102
RTVSPropertyOp17
 70
     1
102
RTVSPropertyOp18
 70
     1
102
RTVSPropertyOp19
 70
     1
102
RTVSPropertyOp20
 70
     1
102
RTVSPropertyOp21
 70
     1
102
RTVSPropertyOp22
 70
     1
102
RTVSPropertyOp23
 70
     1
102
RTVSPropertyOp24
 70
     1
102
RTVSPropertyOp25
 70
     1
102
RTVSPropertyOp26
 70
     1
102
RTVSPropertyOp27
 70
     1
102
RTVSPropertyOp28
 70
     1
102
RTVSPropertyOp29
 70
     1
102
RTVSPropertyOp30
 70
     1
102
RTVSPropertyOp31
 70
     1
102
RTVSPropertyOp32
 70
     1
  0
XRECORD
  5
13D9
102
{ACAD_REACTORS
330
13D8
102
}
330
13D8
100
AcDbXrecord
280
     1
102
RTVSPropertyOp0
 70
     1
102
RTVSPropertyOp1
 70
     1
102
RTVSPropertyOp2
 70
     1
102
RTVSPropertyOp3
 70
     1
102
RTVSPropertyOp4
 70
     1
102
RTVSPropertyOp5
 70
     1
102
RTVSPropertyOp6
 70
     1
102
RTVSPropertyOp7
 70
     1
102
RTVSPropertyOp8
 70
     1
102
RTVSPropertyOp9
 70
     1
102
RTVSPropertyOp10
 70
     1
102
RTVSPropertyOp11
 70
     1
102
RTVSPropertyOp12
 70
     1
102
RTVSPropertyOp13
 70
     1
102
RTVSPropertyOp14
 70
     1
102
RTVSPropertyOp15
 70
     1
102
RTVSPropertyOp16
 70
     1
102
RTVSPropertyOp17
 70
     1
102
RTVSPropertyOp18
 70
     1
102
RTVSPropertyOp19
 70
     1
102
RTVSPropertyOp20
 70
     1
102
RTVSPropertyOp21
 70
     1
102
RTVSPropertyOp22
 70
     1
102
RTVSPropertyOp23
 70
     1
102
RTVSPropertyOp24
 70
     1
102
RTVSPropertyOp25
 70
     1
102
RTVSPropertyOp26
 70
     1
102
RTVSPropertyOp27
 70
     1
102
RTVSPropertyOp28
 70
     1
102
RTVSPropertyOp29
 70
     1
102
RTVSPropertyOp30
 70
     1
102
RTVSPropertyOp31
 70
     1
102
RTVSPropertyOp32
 70
     1
  0
XRECORD
  5
13CD
102
{ACAD_REACTORS
330
13CC
102
}
330
13CC
100
AcDbXrecord
280
     1
102
RTVSPropertyOp0
 70
     1
102
RTVSPropertyOp1
 70
     1
102
RTVSPropertyOp2
 70
     1
102
RTVSPropertyOp3
 70
     1
102
RTVSPropertyOp4
 70
     1
102
RTVSPropertyOp5
 70
     1
102
RTVSPropertyOp6
 70
     1
102
RTVSPropertyOp7
 70
     1
102
RTVSPropertyOp8
 70
     1
102
RTVSPropertyOp9
 70
     1
102
RTVSPropertyOp10
 70
     1
102
RTVSPropertyOp11
 70
     1
102
RTVSPropertyOp12
 70
     1
102
RTVSPropertyOp13
 70
     1
102
RTVSPropertyOp14
 70
     1
102
RTVSPropertyOp15
 70
     1
102
RTVSPropertyOp16
 70
     1
102
RTVSPropertyOp17
 70
     1
102
RTVSPropertyOp18
 70
     1
102
RTVSPropertyOp19
 70
     1
102
RTVSPropertyOp20
 70
     1
102
RTVSPropertyOp21
 70
     1
102
RTVSPropertyOp22
 70
     1
102
RTVSPropertyOp23
 70
     1
102
RTVSPropertyOp24
 70
     1
102
RTVSPropertyOp25
 70
     1
102
RTVSPropertyOp26
 70
     1
102
RTVSPropertyOp27
 70
     1
102
RTVSPropertyOp28
 70
     1
102
RTVSPropertyOp29
 70
     1
102
RTVSPropertyOp30
 70
     1
102
RTVSPropertyOp31
 70
     1
102
RTVSPropertyOp32
 70
     1
  0
XRECORD
  5
13E5
102
{ACAD_REACTORS
330
13E4
102
}
330
13E4
100
AcDbXrecord
280
     1
102
RTVSPropertyOp0
 70
     1
102
RTVSPropertyOp1
 70
     1
102
RTVSPropertyOp2
 70
     1
102
RTVSPropertyOp3
 70
     1
102
RTVSPropertyOp4
 70
     1
102
RTVSPropertyOp5
 70
     1
102
RTVSPropertyOp6
 70
     1
102
RTVSPropertyOp7
 70
     1
102
RTVSPropertyOp8
 70
     1
102
RTVSPropertyOp9
 70
     1
102
RTVSPropertyOp10
 70
     1
102
RTVSPropertyOp11
 70
     1
102
RTVSPropertyOp12
 70
     1
102
RTVSPropertyOp13
 70
     1
102
RTVSPropertyOp14
 70
     1
102
RTVSPropertyOp15
 70
     1
102
RTVSPropertyOp16
 70
     1
102
RTVSPropertyOp17
 70
     1
102
RTVSPropertyOp18
 70
     1
102
RTVSPropertyOp19
 70
     1
102
RTVSPropertyOp20
 70
     1
102
RTVSPropertyOp21
 70
     1
102
RTVSPropertyOp22
 70
     1
102
RTVSPropertyOp23
 70
     1
102
RTVSPropertyOp24
 70
     1
102
RTVSPropertyOp25
 70
     1
102
RTVSPropertyOp26
 70
     1
102
RTVSPropertyOp27
 70
     1
102
RTVSPropertyOp28
 70
     1
102
RTVSPropertyOp29
 70
     1
102
RTVSPropertyOp30
 70
     1
102
RTVSPropertyOp31
 70
     1
102
RTVSPropertyOp32
 70
     1
  0
ENDSEC
  0
EOF
